<?xml version="1.0" standalone="no"?>
<!DOCTYPE svg PUBLIC "-//W3C//DTD SVG 1.1//EN" "http://www.w3.org/Graphics/SVG/1.1/DTD/svg11.dtd">
<svg xmlns="http://www.w3.org/2000/svg">
<metadata>Copyright (C) 2013 by original authors @ fontello.com</metadata>
<defs>
<font id="custom-icons" horiz-adv-x="1000" >
<font-face font-family="custom-icons" font-weight="400" font-stretch="normal" units-per-em="1000" ascent="850" descent="-150" />
<missing-glyph horiz-adv-x="1000" />
<glyph glyph-name="glass" unicode="&#xe807;" d="m948 746q0-19-24-43l-353-353v-429h179q15 0 25-10t11-25t-11-25t-25-11h-500q-14 0-25 11t-11 25t11 25t25 10h179v429l-353 353q-24 24-24 43q0 13 10 21t21 9t24 3h786q13 0 24-3t21-9t10-21z" horiz-adv-x="1000" />
<glyph glyph-name="up-open-big" unicode="&#xe806;" d="m804 130l-372 358l-370-358q-26-22-50 0q-24 24 0 50l396 390q26 26 48 0l396-390q24-26 0-50q-26-22-48 0z" horiz-adv-x="864" />
<glyph glyph-name="search" unicode="&#xe809;" d="m643 386q0 103-74 176t-176 74t-177-74t-73-176t73-177t177-73t176 73t74 177z m286-465q0-29-22-50t-50-21q-30 0-50 21l-191 191q-100-69-223-69q-80 0-153 31t-125 84t-84 125t-31 153t31 152t84 126t125 84t153 31t152-31t126-84t84-126t31-152q0-123-69-223l191-191q21-21 21-51z" horiz-adv-x="928.6" />
<glyph glyph-name="mail" unicode="&#xe80a;" d="m929 11v428q-18-20-39-37q-149-114-238-188q-28-24-46-38t-48-27t-57-13h-2q-26 0-57 13t-48 27t-46 38q-88 74-238 188q-21 17-39 37v-428q0-8 6-13t12-5h822q7 0 12 5t6 13z m0 586v14t-1 7t-1 7t-3 5t-5 4t-8 2h-822q-7 0-12-6t-6-12q0-94 82-159q108-85 224-177q4-2 20-16t25-21t25-18t28-15t24-5h2q11 0 24 5t28 15t25 18t25 21t20 16q116 92 224 177q30 24 56 65t26 73z m71 21v-607q0-37-26-63t-63-27h-822q-36 0-63 27t-26 63v607q0 37 26 63t63 26h822q37 0 63-26t26-63z" horiz-adv-x="1000" />
<glyph glyph-name="mail-alt" unicode="&#xe810;" d="m1000 454v-443q0-37-26-63t-63-27h-822q-36 0-63 27t-26 63v443q25-28 56-49q202-137 278-192q32-24 51-37t53-27t61-13h2q28 0 61 13t53 27t51 37q95 68 278 192q32 22 56 49z m0 164q0-44-27-84t-68-69q-210-146-262-181q-5-4-23-17t-30-22t-29-18t-33-15t-27-5h-2q-12 0-27 5t-33 15t-29 18t-30 22t-23 17q-51 35-147 101t-114 80q-35 23-65 64t-31 77q0 43 23 72t66 29h822q36 0 62-26t27-63z" horiz-adv-x="1000" />
<glyph glyph-name="heart" unicode="&#xe811;" d="m500-79q-14 0-25 10l-348 336q-5 5-15 15t-31 36t-38 55t-30 67t-13 77q0 123 71 192t196 70q34 0 70-12t67-33t54-38t42-38q20 20 42 38t54 38t67 33t70 12q125 0 196-70t71-192q0-123-128-251l-347-335q-10-10-25-10z" horiz-adv-x="1000" />
<glyph glyph-name="heart-empty" unicode="&#xe814;" d="m929 517q0 46-12 80t-31 55t-46 33t-52 18t-55 4t-62-14t-62-36t-48-40t-34-34q-10-13-27-13t-27 13q-14 15-34 34t-48 40t-62 36t-62 14t-55-4t-52-18t-46-33t-31-55t-12-80q0-93 105-198l324-312l324 312q105 105 105 198z m71 0q0-123-128-251l-347-335q-10-10-25-10t-25 10l-348 336q-5 5-15 15t-31 36t-38 55t-30 67t-13 77q0 123 71 192t196 70q34 0 70-12t67-33t54-38t42-38q20 20 42 38t54 38t67 33t70 12q125 0 196-70t71-192z" horiz-adv-x="1000" />
<glyph glyph-name="star" unicode="&#xe815;" d="m929 489q0-12-15-27l-203-197l48-279q1-4 1-12q0-11-6-19t-17-9q-10 0-22 7l-251 132l-250-132q-13-7-23-7q-11 0-17 9t-6 19q0 4 1 12l48 279l-203 197q-14 15-14 27q0 21 31 26l280 40l126 254q11 23 27 23t28-23l125-254l280-40q32-5 32-26z" horiz-adv-x="928.6" />
<glyph glyph-name="star-empty" unicode="&#xe818;" d="m634 290l171 165l-235 35l-106 213l-105-213l-236-35l171-165l-41-235l211 111l211-111z m295 199q0-12-15-27l-203-197l48-279q1-4 1-12q0-28-23-28q-10 0-22 7l-251 132l-250-132q-13-7-23-7q-11 0-17 9t-6 19q0 4 1 12l48 279l-203 197q-14 15-14 27q0 21 31 26l280 40l126 254q11 23 27 23t28-23l125-254l280-40q32-5 32-26z" horiz-adv-x="928.6" />
<glyph glyph-name="star-half" unicode="&#xe819;" d="m464 832v-747l-250-132q-13-7-23-7q-11 0-17 9t-6 19q0 4 1 12l48 279l-203 197q-14 15-14 27q0 21 31 26l280 40l126 254q11 23 27 23z" horiz-adv-x="500" />
<glyph glyph-name="star-half-alt" unicode="&#xe81b;" d="m662 316l143 139l-198 29l-37 6l-17 34l-89 179v-537l33-17l178-94l-34 198l-7 37z m252 146l-202-197l47-279q3-19-3-29t-19-11q-9 0-22 7l-251 132l-250-132q-13-7-23-7q-12 0-19 11t-3 29l48 279l-203 197q-18 18-13 33t30 20l280 40l126 254q11 23 27 23q16 0 28-23l125-254l280-40q25-4 30-20t-13-33z" horiz-adv-x="928.6" />
<glyph glyph-name="user-1" unicode="&#xe81d;" d="m786 66q0-67-41-106t-108-39h-488q-67 0-108 39t-41 106q0 30 2 58t8 61t15 60t24 55t34 45t48 30t62 11q5 0 24-12t41-27t60-27t75-12t74 12t61 27t41 27t24 12q34 0 62-11t48-30t34-45t24-55t15-60t8-61t2-58z m-179 498q0-88-63-151t-151-63t-152 63t-62 151t62 152t152 63t151-63t63-152z" horiz-adv-x="785.7" />
<glyph glyph-name="users" unicode="&#xe81f;" d="m331 350q-90-3-148-71h-75q-45 0-77 22t-31 66q0 197 69 197q4 0 25-11t54-24t66-12q38 0 75 13q-3-21-3-37q0-78 45-143z m598-356q0-66-41-105t-108-39h-488q-68 0-108 39t-41 105q0 30 2 58t8 61t14 61t24 54t35 45t48 30t62 11q6 0 24-12t41-26t59-27t76-12t75 12t60 27t41 26t23 12q35 0 63-11t47-30t35-45t24-54t15-61t8-61t2-58z m-572 713q0-59-42-101t-101-42t-101 42t-42 101t42 101t101 42t101-42t42-101z m393-214q0-89-63-152t-151-62t-152 62t-63 152t63 151t152 63t151-63t63-151z m321-126q0-43-31-66t-77-22h-75q-57 68-147 71q45 65 45 143q0 16-3 37q37-13 74-13q33 0 67 12t54 24t24 11q69 0 69-197z m-71 340q0-59-42-101t-101-42t-101 42t-42 101t42 101t101 42t101-42t42-101z" horiz-adv-x="1071.4" />
<glyph glyph-name="male" unicode="&#xe821;" d="m571 457v-232q0-22-15-38t-38-16t-38 16t-16 38v196h-35v-509q0-25-19-44t-44-18t-44 18t-18 44v259h-36v-259q0-25-19-44t-44-18t-44 18t-18 44v509h-36v-196q0-22-15-38t-38-16t-38 16t-16 38v232q0 45 31 76t76 31h357q45 0 76-31t31-76z m-160 250q0-52-37-88t-88-37t-89 37t-36 88t36 89t89 36t88-36t37-89z" horiz-adv-x="571.4" />
<glyph glyph-name="female" unicode="&#xe823;" d="m714 261q0-23-15-38t-38-16q-29 0-45 24l-127 190h-25v-73l138-230q5-8 5-18q0-14-10-25t-26-11h-107v-152q0-25-18-44t-44-18h-89q-26 0-45 18t-18 44v152h-107q-15 0-25 11t-11 25q0 10 5 18l138 230v73h-25l-127-190q-16-24-44-24q-23 0-38 16t-16 38q0 16 9 29l143 215q41 59 98 59h214q58 0 99-59l142-215q9-13 9-29z m-232 446q0-52-36-88t-89-37t-88 37t-37 88t37 89t88 36t89-36t36-89z" horiz-adv-x="714.3" />
<glyph glyph-name="video" unicode="&#xe825;" d="m214-43v72q0 14-10 25t-25 10h-72q-14 0-25-10t-11-25v-72q0-14 11-25t25-11h72q14 0 25 11t10 25z m0 214v72q0 14-10 25t-25 11h-72q-14 0-25-11t-11-25v-72q0-14 11-25t25-10h72q14 0 25 10t10 25z m0 215v71q0 15-10 25t-25 11h-72q-14 0-25-11t-11-25v-71q0-15 11-25t25-11h72q14 0 25 11t10 25z m572-429v286q0 14-11 25t-25 11h-429q-14 0-25-11t-10-25v-286q0-14 10-25t25-11h429q15 0 25 11t11 25z m-572 643v71q0 15-10 26t-25 10h-72q-14 0-25-10t-11-26v-71q0-15 11-25t25-11h72q14 0 25 11t10 25z m786-643v72q0 14-11 25t-25 10h-71q-15 0-25-10t-11-25v-72q0-14 11-25t25-11h71q15 0 25 11t11 25z m-214 429v285q0 15-11 26t-25 10h-429q-14 0-25-10t-10-26v-285q0-15 10-25t25-11h429q15 0 25 11t11 25z m214-215v72q0 14-11 25t-25 11h-71q-15 0-25-11t-11-25v-72q0-14 11-25t25-10h71q15 0 25 10t11 25z m0 215v71q0 15-11 25t-25 11h-71q-15 0-25-11t-11-25v-71q0-15 11-25t25-11h71q15 0 25 11t11 25z m0 214v71q0 15-11 26t-25 10h-71q-15 0-25-10t-11-26v-71q0-15 11-25t25-11h71q15 0 25 11t11 25z m71 89v-750q0-37-26-63t-63-26h-893q-36 0-63 26t-26 63v750q0 37 26 63t63 27h893q37 0 63-27t26-63z" horiz-adv-x="1071.4" />
<glyph glyph-name="videocam" unicode="&#xe827;" d="m1000 654v-608q0-23-22-32q-7-3-14-3q-15 0-25 10l-225 225v-92q0-67-47-114t-113-47h-393q-67 0-114 47t-47 114v392q0 67 47 114t114 47h393q66 0 113-47t47-114v-92l225 225q10 10 25 10q7 0 14-3q22-9 22-32z" horiz-adv-x="1000" />
<glyph glyph-name="picture" unicode="&#xe829;" d="m357 529q0-45-31-76t-76-32t-76 32t-31 76t31 75t76 32t76-32t31-75z m572-215v-250h-786v107l178 179l90-89l285 285z m53 393h-893q-7 0-12-5t-6-13v-678q0-8 6-13t12-5h893q7 0 13 5t5 13v678q0 7-5 13t-13 5z m89-18v-678q0-37-26-63t-63-27h-893q-36 0-63 27t-26 63v678q0 37 26 63t63 27h893q37 0 63-27t26-63z" horiz-adv-x="1071.4" />
<glyph glyph-name="camera" unicode="&#xe82b;" d="m536 475q66 0 113-47t47-114t-47-113t-113-47t-114 47t-47 113t47 114t114 47z m393 232q59 0 101-42t41-101v-500q0-59-41-101t-101-42h-786q-59 0-101 42t-42 101v500q0 59 42 101t101 42h125l28 76q11 27 39 47t58 20h286q29 0 57-20t39-47l29-76h125z m-393-643q103 0 176 74t74 176t-74 177t-176 73t-177-73t-73-177t73-176t177-74z" horiz-adv-x="1071.4" />
<glyph glyph-name="camera-alt" unicode="&#xe82d;" d="m518 386q0 8-5 13t-13 5q-37 0-63-27t-26-63q0-8 5-13t13-5t12 5t5 13q0 23 16 38t38 16q8 0 13 5t5 13z m125-73q0-59-42-101t-101-42t-101 42t-42 101t42 101t101 42t101-42t42-101z m-572-320h858v71h-858v-71z m643 320q0 89-62 152t-152 62t-151-62t-63-152t63-151t151-63t152 63t62 151z m-571 358h214v72h-214v-72z m-72-107h858v143h-462l-36-71h-360v-72z m929 143v-714q0-30-21-51t-50-21h-858q-29 0-50 21t-21 51v714q0 30 21 51t50 21h858q29 0 50-21t21-51z" horiz-adv-x="1000" />
<glyph glyph-name="th-large" unicode="&#xe80b;" d="m429 279v-215q0-29-22-50t-50-21h-286q-29 0-50 21t-21 50v215q0 29 21 50t50 21h286q29 0 50-21t22-50z m0 428v-214q0-29-22-50t-50-22h-286q-29 0-50 22t-21 50v214q0 29 21 50t50 22h286q29 0 50-22t22-50z m500-428v-215q0-29-22-50t-50-21h-286q-29 0-50 21t-21 50v215q0 29 21 50t50 21h286q29 0 50-21t22-50z m0 428v-214q0-29-22-50t-50-22h-286q-29 0-50 22t-21 50v214q0 29 21 50t50 22h286q29 0 50-22t22-50z" horiz-adv-x="928.6" />
<glyph glyph-name="th" unicode="&#xe80c;" d="m286 154v-108q0-22-16-37t-38-16h-178q-23 0-38 16t-16 37v108q0 22 16 38t38 15h178q22 0 38-15t16-38z m0 285v-107q0-22-16-38t-38-15h-178q-23 0-38 15t-16 38v107q0 23 16 38t38 16h178q22 0 38-16t16-38z m357-285v-108q0-22-16-37t-38-16h-178q-23 0-38 16t-16 37v108q0 22 16 38t38 15h178q23 0 38-15t16-38z m-357 571v-107q0-22-16-38t-38-16h-178q-23 0-38 16t-16 38v107q0 22 16 38t38 16h178q22 0 38-16t16-38z m357-286v-107q0-22-16-38t-38-15h-178q-23 0-38 15t-16 38v107q0 23 16 38t38 16h178q23 0 38-16t16-38z m357-285v-108q0-22-16-37t-38-16h-178q-22 0-38 16t-16 37v108q0 22 16 38t38 15h178q23 0 38-15t16-38z m-357 571v-107q0-22-16-38t-38-16h-178q-23 0-38 16t-16 38v107q0 22 16 38t38 16h178q23 0 38-16t16-38z m357-286v-107q0-22-16-38t-38-15h-178q-22 0-38 15t-16 38v107q0 23 16 38t38 16h178q23 0 38-16t16-38z m0 286v-107q0-22-16-38t-38-16h-178q-22 0-38 16t-16 38v107q0 22 16 38t38 16h178q23 0 38-16t16-38z" horiz-adv-x="1000" />
<glyph glyph-name="th-list" unicode="&#xe80d;" d="m286 154v-108q0-22-16-37t-38-16h-178q-23 0-38 16t-16 37v108q0 22 16 38t38 15h178q22 0 38-15t16-38z m0 285v-107q0-22-16-38t-38-15h-178q-23 0-38 15t-16 38v107q0 23 16 38t38 16h178q22 0 38-16t16-38z m714-285v-108q0-22-16-37t-38-16h-535q-23 0-38 16t-16 37v108q0 22 16 38t38 15h535q23 0 38-15t16-38z m-714 571v-107q0-22-16-38t-38-16h-178q-23 0-38 16t-16 38v107q0 22 16 38t38 16h178q22 0 38-16t16-38z m714-286v-107q0-22-16-38t-38-15h-535q-23 0-38 15t-16 38v107q0 23 16 38t38 16h535q23 0 38-16t16-38z m0 286v-107q0-22-16-38t-38-16h-535q-23 0-38 16t-16 38v107q0 22 16 38t38 16h535q23 0 38-16t16-38z" horiz-adv-x="1000" />
<glyph glyph-name="ok" unicode="&#xe80e;" d="m932 534q0-22-15-38l-404-404l-76-76q-16-15-38-15t-38 15l-76 76l-202 202q-15 16-15 38t15 38l76 76q16 16 38 16t38-16l164-165l366 367q16 16 38 16t38-16l76-76q15-16 15-38z" horiz-adv-x="1000" />
<glyph glyph-name="ok-circled" unicode="&#xe80f;" d="m717 440q0 16-11 26l-50 50q-11 11-25 11t-26-11l-227-227l-126 126q-11 11-25 11t-26-11l-50-50q-10-10-10-26q0-15 10-25l202-202q10-10 25-10q15 0 25 10l303 303q11 10 11 25z m140-90q0-117-57-215t-156-156t-215-58t-216 58t-155 156t-58 215t58 215t155 156t216 58t215-58t156-156t57-215z" horiz-adv-x="857.1" />
<glyph glyph-name="ok-circled2" unicode="&#xe812;" d="m653 396l-235-235q-11-11-25-11t-25 11l-164 164q-11 11-11 25t11 25l57 57q10 11 25 11t25-11l82-82l153 153q11 11 25 11t26-11l56-56q11-11 11-26t-11-25z m79-46q0 83-41 152t-110 111t-152 41t-153-41t-110-111t-41-152t41-152t110-111t153-41t152 41t110 111t41 152z m125 0q0-117-57-215t-156-156t-215-58t-216 58t-155 156t-58 215t58 215t155 156t216 58t215-58t156-156t57-215z" horiz-adv-x="857.1" />
<glyph glyph-name="ok-squared" unicode="&#xe813;" d="m382 125l343 343q10 10 10 25t-10 25l-57 57q-11 10-25 10t-25-10l-261-261l-118 118q-10 11-25 11t-25-11l-57-57q-10-11-10-25t10-25l200-200q11-11 25-11t25 11z m475 493v-536q0-66-47-113t-114-48h-535q-67 0-114 48t-47 113v536q0 66 47 113t114 48h535q67 0 114-48t47-113z" horiz-adv-x="857.1" />
<glyph glyph-name="cancel" unicode="&#xe816;" d="m724 112q0-22-15-38l-76-76q-16-15-38-15t-38 15l-164 165l-164-165q-16-15-38-15t-38 15l-76 76q-16 16-16 38t16 38l164 164l-164 164q-16 16-16 38t16 38l76 76q16 16 38 16t38-16l164-164l164 164q16 16 38 16t38-16l76-76q15-15 15-38t-15-38l-164-164l164-164q15-15 15-38z" horiz-adv-x="785.7" />
<glyph glyph-name="cancel-circled" unicode="&#xe817;" d="m641 224q0 14-10 25l-101 101l101 101q10 11 10 25q0 15-10 26l-51 50q-10 11-25 11q-15 0-25-11l-101-101l-101 101q-11 11-26 11q-15 0-25-11l-50-50q-11-11-11-26q0-14 11-25l101-101l-101-101q-11-11-11-25q0-15 11-26l50-50q10-11 25-11q15 0 26 11l101 101l101-101q10-11 25-11q15 0 25 11l51 50q10 11 10 26z m216 126q0-117-57-215t-156-156t-215-58t-216 58t-155 156t-58 215t58 215t155 156t216 58t215-58t156-156t57-215z" horiz-adv-x="857.1" />
<glyph glyph-name="cancel-circled2" unicode="&#xe81a;" d="m612 248l-81-82q-6-5-13-5t-13 5l-76 77l-77-77q-5-5-13-5t-13 5l-81 82q-6 5-6 13t6 13l76 76l-76 76q-6 6-6 13t6 13l81 82q6 5 13 5t13-5l77-77l76 77q6 5 13 5t13-5l81-82q6-5 6-13t-6-13l-76-76l76-76q6-6 6-13t-6-13z m120 102q0 83-41 152t-110 111t-152 41t-153-41t-110-111t-41-152t41-152t110-111t153-41t152 41t110 111t41 152z m125 0q0-117-57-215t-156-156t-215-58t-216 58t-155 156t-58 215t58 215t155 156t216 58t215-58t156-156t57-215z" horiz-adv-x="857.1" />
<glyph glyph-name="plus-1" unicode="&#xe81c;" d="m786 439v-107q0-22-16-38t-38-15h-232v-233q0-22-16-37t-38-16h-107q-22 0-38 16t-15 37v233h-232q-23 0-38 15t-16 38v107q0 23 16 38t38 16h232v232q0 22 15 38t38 16h107q23 0 38-16t16-38v-232h232q22 0 38-16t16-38z" horiz-adv-x="785.7" />
<glyph glyph-name="plus-circled" unicode="&#xe81e;" d="m679 314v72q0 14-11 25t-25 10h-143v143q0 15-11 25t-25 11h-71q-15 0-25-11t-11-25v-143h-143q-14 0-25-10t-10-25v-72q0-14 10-25t25-11h143v-142q0-15 11-25t25-11h71q15 0 25 11t11 25v142h143q14 0 25 11t11 25z m178 36q0-117-57-215t-156-156t-215-58t-216 58t-155 156t-58 215t58 215t155 156t216 58t215-58t156-156t57-215z" horiz-adv-x="857.1" />
<glyph glyph-name="plus-squared" unicode="&#xe820;" d="m714 314v72q0 14-10 25t-25 10h-179v179q0 15-11 25t-25 11h-71q-15 0-25-11t-11-25v-179h-178q-15 0-26-10t-10-25v-72q0-14 10-25t26-10h178v-179q0-14 11-25t25-11h71q15 0 25 11t11 25v179h179q14 0 25 10t10 25z m143 304v-536q0-66-47-113t-114-48h-535q-67 0-114 48t-47 113v536q0 66 47 113t114 48h535q67 0 114-48t47-113z" horiz-adv-x="857.1" />
<glyph glyph-name="plus-squared-small" unicode="&#xe822;" d="m500 332v-36q0-7-5-12t-13-5h-125v-125q0-8-5-13t-13-5h-35q-8 0-13 5t-5 13v125h-125q-8 0-13 5t-5 12v36q0 8 5 13t13 5h125v125q0 8 5 13t13 5h35q8 0 13-5t5-13v-125h125q8 0 13-5t5-13z m71-214v393q0 22-15 38t-38 15h-393q-22 0-38-15t-16-38v-393q0-22 16-38t38-16h393q22 0 38 16t15 38z m72 393v-393q0-51-37-88t-88-37h-393q-52 0-88 37t-37 88v393q0 52 37 88t88 37h393q52 0 88-37t37-88z" horiz-adv-x="642.9" />
<glyph glyph-name="minus" unicode="&#xe824;" d="m786 439v-107q0-22-16-38t-38-15h-678q-23 0-38 15t-16 38v107q0 23 16 38t38 16h678q22 0 38-16t16-38z" horiz-adv-x="785.7" />
<glyph glyph-name="minus-circled" unicode="&#xe826;" d="m679 314v72q0 14-11 25t-25 10h-429q-14 0-25-10t-10-25v-72q0-14 10-25t25-10h429q14 0 25 10t11 25z m178 36q0-117-57-215t-156-156t-215-58t-216 58t-155 156t-58 215t58 215t155 156t216 58t215-58t156-156t57-215z" horiz-adv-x="857.1" />
<glyph glyph-name="minus-squared" unicode="&#xe828;" d="m714 314v72q0 14-10 25t-25 10h-500q-15 0-26-10t-10-25v-72q0-14 10-25t26-10h500q14 0 25 10t10 25z m143 304v-536q0-66-47-113t-114-48h-535q-67 0-114 48t-47 113v536q0 66 47 113t114 48h535q67 0 114-48t47-113z" horiz-adv-x="857.1" />
<glyph glyph-name="minus-squared-alt" unicode="&#xe82a;" d="m643 404v-36q0-8-5-13t-13-5h-464q-8 0-13 5t-5 13v36q0 7 5 12t13 5h464q8 0 13-5t5-12z m71-250v464q0 37-26 63t-63 26h-464q-37 0-63-26t-27-63v-464q0-37 27-64t63-26h464q37 0 63 26t26 64z m72 464v-464q0-67-47-114t-114-47h-464q-67 0-114 47t-47 114v464q0 66 47 113t114 48h464q66 0 114-48t47-113z" horiz-adv-x="785.7" />
<glyph glyph-name="minus-squared-small" unicode="&#xe82c;" d="m518 636q52 0 88-37t37-88v-393q0-51-37-88t-88-37h-393q-52 0-88 37t-37 88v393q0 52 37 88t88 37h393z m53-518v393q0 22-15 38t-38 15h-393q-22 0-38-15t-16-38v-393q0-22 16-38t38-16h393q22 0 38 16t15 38z m-89 232q8 0 13-5t5-13v-36q0-7-5-12t-13-5h-321q-8 0-13 5t-5 12v36q0 8 5 13t13 5h321z" horiz-adv-x="642.9" />
<glyph glyph-name="help" unicode="&#xe82e;" d="m393 149v-134q0-9-7-16t-15-6h-134q-9 0-16 6t-7 16v134q0 9 7 16t16 6h134q8 0 15-6t7-16z m176 335q0-30-8-56t-20-43t-31-33t-32-25t-34-19q-23-13-38-37t-15-37q0-10-7-18t-16-9h-134q-8 0-14 10t-6 21v26q0 46 37 87t79 60q33 15 47 32t14 42q0 23-26 41t-60 18q-36 0-60-16q-20-14-60-64q-7-9-17-9q-7 0-14 4l-91 70q-8 6-9 14t3 16q89 148 259 148q45 0 90-17t81-46t59-72t23-88z" horiz-adv-x="571.4" />
<glyph glyph-name="help-circled" unicode="&#xe82f;" d="m500 82v107q0 8-5 13t-13 5h-107q-8 0-13-5t-5-13v-107q0-8 5-13t13-5h107q8 0 13 5t5 13z m143 375q0 49-31 91t-77 65t-95 23q-136 0-207-119q-9-14 4-24l74-55q4-4 10-4q9 0 14 7q30 38 48 51q19 14 48 14q27 0 48-15t21-33q0-21-11-34t-38-25q-35-16-65-48t-29-70v-20q0-8 5-13t13-5h107q8 0 13 5t5 13q0 10 12 27t30 28q18 10 28 16t25 19t25 27t16 34t7 45z m214-107q0-117-57-215t-156-156t-215-58t-216 58t-155 156t-58 215t58 215t155 156t216 58t215-58t156-156t57-215z" horiz-adv-x="857.1" />
<glyph glyph-name="info-circled" unicode="&#xe836;" d="m571 82v89q0 8-5 13t-12 5h-54v286q0 8-5 13t-13 5h-178q-8 0-13-5t-5-13v-89q0-8 5-13t13-5h53v-179h-53q-8 0-13-5t-5-13v-89q0-8 5-13t13-5h250q7 0 12 5t5 13z m-71 500v89q0 8-5 13t-13 5h-107q-8 0-13-5t-5-13v-89q0-8 5-13t13-5h107q8 0 13 5t5 13z m357-232q0-117-57-215t-156-156t-215-58t-216 58t-155 156t-58 215t58 215t155 156t216 58t215-58t156-156t57-215z" horiz-adv-x="857.1" />
<glyph glyph-name="info" unicode="&#xe837;" d="m357 100v-71q0-15-10-25t-26-11h-285q-15 0-25 11t-11 25v71q0 15 11 25t25 11h35v214h-35q-15 0-25 11t-11 25v71q0 15 11 25t25 11h214q15 0 25-11t11-25v-321h35q15 0 26-11t10-25z m-71 643v-107q0-15-11-25t-25-11h-143q-14 0-25 11t-11 25v107q0 14 11 25t25 11h143q15 0 25-11t11-25z" horiz-adv-x="357.1" />
<glyph glyph-name="home" unicode="&#xe83e;" d="m786 296v-267q0-15-11-26t-25-10h-214v214h-143v-214h-214q-15 0-25 10t-11 26v267q0 1 0 2t0 2l321 264l321-264q1-1 1-4z m124 39l-34-41q-5-5-12-6h-2q-7 0-12 3l-386 322l-386-322q-7-4-13-4q-7 2-12 7l-35 41q-4 5-3 13t6 12l401 334q18 15 42 15t43-15l136-114v109q0 8 5 13t13 5h107q8 0 13-5t5-13v-227l122-102q5-5 6-12t-4-13z" horiz-adv-x="928.6" />
<glyph glyph-name="link" unicode="&#xe83f;" d="m812 171q0 23-15 38l-116 116q-16 16-38 16q-24 0-40-18q1-1 10-10t12-12t9-11t7-14t2-15q0-23-16-38t-38-16q-8 0-15 2t-14 7t-11 9t-12 12t-10 10q-19-17-19-40q0-23 16-38l115-116q15-15 38-15q22 0 38 15l82 81q15 16 15 37z m-392 394q0 22-15 38l-115 115q-16 16-38 16q-22 0-38-15l-82-82q-16-15-16-37q0-22 16-38l116-116q15-15 38-15q23 0 40 17q-2 2-11 11t-12 12t-8 10t-7 14t-2 16q0 22 15 38t38 15q9 0 16-2t14-7t10-8t12-12t11-11q18 17 18 41z m500-394q0-67-48-113l-82-81q-46-47-113-47q-68 0-114 48l-115 115q-46 47-46 114q0 68 49 116l-49 49q-48-49-116-49q-67 0-114 47l-116 116q-47 47-47 114t47 113l82 82q47 46 114 46q67 0 114-47l114-116q47-46 47-113q0-69-49-117l49-49q48 49 116 49q67 0 114-47l116-116q47-47 47-114z" horiz-adv-x="928.6" />
<glyph glyph-name="unlink" unicode="&#xe846;" d="m245 141l-143-143q-5-5-13-5q-6 0-13 5q-5 5-5 13t5 13l143 142q6 5 13 5t13-5q5-5 5-12t-5-13z m94-23v-179q0-8-5-13t-13-5t-12 5t-5 13v179q0 8 5 13t12 5t13-5t5-13z m-125 125q0-8-5-13t-13-5h-178q-8 0-13 5t-5 13t5 13t13 5h178q8 0 13-5t5-13z m706-72q0-67-48-113l-82-81q-46-47-113-47q-68 0-114 48l-186 187q-12 11-24 31l134 10l152-153q15-15 38-15t38 15l82 81q15 16 15 37q0 23-15 38l-153 154l10 133q20-12 31-23l188-188q47-48 47-114z m-345 404l-133-10l-152 153q-16 16-38 16q-22 0-38-15l-82-82q-16-15-16-37q0-22 16-38l153-153l-10-134q-20 12-32 24l-187 187q-47 48-47 114q0 67 47 113l82 82q47 46 114 46q67 0 114-47l186-187q12-12 23-32z m354-46q0-8-5-13t-13-5h-179q-8 0-13 5t-5 13t5 12t13 5h179q8 0 13-5t5-12z m-304 303v-178q0-8-5-13t-13-5t-13 5t-5 13v178q0 8 5 13t13 5t13-5t5-13z m227-84l-143-143q-6-5-13-5t-12 5q-5 6-5 13t5 13l142 142q6 5 13 5t13-5q5-5 5-12t-5-13z" horiz-adv-x="928.6" />
<glyph glyph-name="link-ext" unicode="&#xe847;" d="m786 332v-178q0-67-47-114t-114-47h-464q-67 0-114 47t-47 114v464q0 66 47 113t114 48h393q7 0 12-5t5-13v-36q0-8-5-13t-12-5h-393q-37 0-63-26t-27-63v-464q0-37 27-63t63-27h464q37 0 63 27t26 63v178q0 8 5 13t13 5h36q8 0 13-5t5-13z m214 482v-285q0-15-11-26t-25-10t-25 10l-98 99l-364-364q-5-6-13-6t-13 6l-63 63q-6 6-6 13t6 13l364 364l-99 98q-10 11-10 25t10 25t26 11h285q15 0 25-11t11-25z" horiz-adv-x="1000" />
<glyph glyph-name="link-ext-alt" unicode="&#xe84e;" d="m714 332v268q0 15-10 25t-25 11h-268q-24 0-33-22q-10-23 8-39l80-80l-298-298q-11-11-11-26t11-25l57-57q11-10 25-10t25 10l298 298l80-80q11-11 26-11q6 0 14 3q21 10 21 33z m143 286v-536q0-66-47-113t-114-48h-535q-67 0-114 48t-47 113v536q0 66 47 113t114 48h535q67 0 114-48t47-113z" horiz-adv-x="857.1" />
<glyph glyph-name="attach" unicode="&#xe84f;" d="m783 77q0-65-44-109t-109-44q-75 0-131 55l-434 434q-63 64-63 151q0 88 62 150t150 62q88 0 152-63l338-338q5-5 5-12q0-9-17-26t-26-17q-7 0-13 5l-338 339q-44 43-101 43q-59 0-100-42t-40-101q0-58 42-101l433-433q35-35 81-35q36 0 59 23t24 59q0 46-36 81l-324 324q-14 14-33 14q-16 0-27-11t-11-27q0-18 14-33l229-228q6-6 6-13q0-9-18-26t-26-17q-7 0-12 5l-229 229q-35 34-35 83q0 46 32 78t77 32q49 0 83-36l325-324q55-54 55-131z" horiz-adv-x="785.7" />
<glyph glyph-name="lock" unicode="&#xe856;" d="m179 421h285v108q0 59-42 101t-101 41t-101-41t-41-101v-108z m464-53v-322q0-22-16-37t-38-16h-535q-23 0-38 16t-16 37v322q0 22 16 38t38 15h17v108q0 102 74 176t176 74t177-74t73-176v-108h18q23 0 38-15t16-38z" horiz-adv-x="642.9" />
<glyph glyph-name="lock-open" unicode="&#xe857;" d="m929 529v-143q0-15-11-25t-25-11h-36q-14 0-25 11t-11 25v143q0 59-41 101t-101 41t-101-41t-42-101v-108h53q23 0 38-15t16-38v-322q0-22-16-37t-38-16h-535q-23 0-38 16t-16 37v322q0 22 16 38t38 15h375v108q0 103 73 176t177 74t176-74t74-176z" horiz-adv-x="928.6" />
<glyph glyph-name="lock-open-alt" unicode="&#xe85d;" d="m589 421q23 0 38-15t16-38v-322q0-22-16-37t-38-16h-535q-23 0-38 16t-16 37v322q0 22 16 38t38 15h17v179q0 103 74 177t176 73t177-73t73-177q0-15-10-25t-25-11h-36q-14 0-25 11t-11 25q0 59-42 101t-101 42t-101-42t-41-101v-179h410z" horiz-adv-x="642.9" />
<glyph glyph-name="pin" unicode="&#xe861;" d="m268 368v250q0 8-5 13t-13 5t-13-5t-5-13v-250q0-8 5-13t13-5t13 5t5 13z m375-197q0-14-11-25t-25-10h-239l-29-270q-1-7-6-11t-11-5h-1q-15 0-17 15l-43 271h-225q-15 0-25 10t-11 25q0 69 44 124t99 55v286q-29 0-50 21t-22 50t22 50t50 22h357q29 0 50-22t21-50t-21-50t-50-21v-286q55 0 99-55t44-124z" horiz-adv-x="642.9" />
<glyph glyph-name="eye" unicode="&#xe862;" d="m929 314q-85 132-213 197q34-58 34-125q0-104-73-177t-177-73t-177 73t-73 177q0 67 34 125q-128-65-213-197q75-114 187-182t242-68t242 68t187 182z m-402 215q0 11-8 19t-19 7q-70 0-120-50t-50-119q0-12 8-19t19-8t19 8t8 19q0 48 34 82t82 34q11 0 19 8t8 19z m473-215q0-19-11-38q-78-129-210-206t-279-77t-279 77t-210 206q-11 19-11 38t11 39q78 128 210 205t279 78t279-78t210-205q11-20 11-39z" horiz-adv-x="1000" />
<glyph glyph-name="eye-off" unicode="&#xe86a;" d="m310 105l43 79q-48 35-76 88t-27 114q0 67 34 125q-128-65-213-197q94-144 239-209z m217 424q0 11-8 19t-19 7q-70 0-120-50t-50-119q0-12 8-19t19-8t19 8t8 19q0 48 34 82t82 34q11 0 19 8t8 19z m202 106q0-4 0-5q-59-105-176-316t-176-316l-28-50q-5-9-15-9q-7 0-75 39q-9 6-9 16q0 7 25 49q-80 36-147 96t-117 137q-11 17-11 38t11 39q86 131 212 207t277 76q50 0 100-10l31 54q5 9 15 9q3 0 10-3t18-9t18-10t18-10t10-7q9-5 9-15z m21-249q0-78-44-142t-117-92l157 281q4-26 4-47z m250-72q0-19-11-38q-22-36-61-81q-84-96-194-149t-234-53l41 74q119 10 219 76t169 171q-65 100-158 164l35 63q53-36 102-86t81-102q11-19 11-39z" horiz-adv-x="1000" />
<glyph glyph-name="tag-1" unicode="&#xe86b;" d="m250 600q0 30-21 51t-50 20t-51-20t-21-51t21-50t51-21t50 21t21 50z m595-321q0-30-20-51l-274-274q-22-21-51-21q-30 0-50 21l-399 399q-21 21-36 57t-15 65v232q0 29 21 50t50 22h233q29 0 65-15t57-36l399-399q20-21 20-50z" horiz-adv-x="857.1" />
<glyph glyph-name="tags" unicode="&#xe872;" d="m250 600q0 30-21 51t-50 20t-51-20t-21-51t21-50t51-21t50 21t21 50z m595-321q0-30-20-51l-274-274q-22-21-51-21q-30 0-50 21l-399 399q-21 21-36 57t-15 65v232q0 29 21 50t50 22h233q29 0 65-15t57-36l399-399q20-21 20-50z m215 0q0-30-21-51l-274-274q-22-21-51-21q-20 0-33 8t-29 25l262 262q21 21 21 51q0 29-21 50l-399 399q-21 21-57 36t-65 15h125q29 0 65-15t57-36l399-399q21-21 21-50z" horiz-adv-x="1071.4" />
<glyph glyph-name="bookmark" unicode="&#xe873;" d="m650 779q12 0 24-5q19-8 29-23t11-35v-719q0-19-11-35t-29-23q-10-4-24-4q-27 0-47 18l-246 236l-246-236q-20-19-46-19q-13 0-25 5q-18 7-29 23t-11 35v719q0 19 11 35t29 23q12 5 25 5h585z" horiz-adv-x="714.3" />
<glyph glyph-name="bookmark-empty" unicode="&#xe874;" d="m643 707h-572v-693l237 227l49 47l50-47l236-227v693z m7 72q12 0 24-5q19-8 29-23t11-35v-719q0-19-11-35t-29-23q-10-4-24-4q-27 0-47 18l-246 236l-246-236q-20-19-46-19q-13 0-25 5q-18 7-29 23t-11 35v719q0 19 11 35t29 23q12 5 25 5h585z" horiz-adv-x="714.3" />
<glyph glyph-name="flag" unicode="&#xe875;" d="m179 707q0-40-36-61v-707q0-7-5-12t-13-6h-36q-7 0-12 6t-6 12v707q-35 21-35 61q0 30 21 51t50 21t51-21t21-51z m821-36v-425q0-14-7-22t-22-15q-120-65-206-65q-34 0-69 12t-60 27t-65 27t-79 12q-107 0-259-81q-10-5-19-5q-14 0-25 10t-10 25v414q0 18 17 31q12 8 44 24q132 67 235 67q60 0 112-16t122-49q21-11 49-11q30 0 65 12t62 26t49 26t30 12q15 0 25-10t11-26z" horiz-adv-x="1000" />
<glyph glyph-name="flag-empty" unicode="&#xe830;" d="m929 267v344q-95-51-171-51q-46 0-81 18q-56 27-103 42t-99 16q-97 0-225-71v-334q137 63 242 63q30 0 57-5t55-14t43-17t46-22l16-8q24-13 56-13q67 0 164 52z m-750 440q0-19-10-36t-26-25v-707q0-8-5-13t-13-5h-36q-7 0-13 5t-5 13v707q-16 9-25 25t-10 36q0 30 21 51t50 20t51-20t21-51z m821-36v-425q0-22-20-32q-5-3-9-5q-122-65-206-65q-49 0-88 20l-16 7q-35 19-55 27t-51 16t-63 8q-57 0-132-24t-127-57q-9-5-19-5q-9 0-18 4q-17 11-17 31v414q0 20 17 31q19 12 44 24t63 29t85 28t87 10q62 0 117-17t116-48q21-11 50-11q68 0 173 63q12 6 17 9q17 9 35-1q17-11 17-31z" horiz-adv-x="1000" />
<glyph glyph-name="flag-checkered" unicode="&#xe835;" d="m464 292v107q-101-9-214-65v-103q114 53 214 61z m0 233v110q-96-4-214-70v-106q120 62 214 66z m465-258v103q-132-65-215-40v125q-11 3-21 8q-3 2-19 10t-19 9t-18 9t-19 8t-18 8t-20 7t-20 4t-22 4t-22 3t-24 1q-13 0-28-2v-124h11q57 0 107-16t111-46q10-5 21-8v-105q24-9 51-9q67 0 164 51z m0 238v106q-95-51-171-51q-25 0-44 4v-109q83-24 215 50z m-750 202q0-19-10-36t-26-25v-707q0-8-5-13t-13-5h-36q-7 0-13 5t-5 13v707q-16 9-25 25t-10 36q0 30 21 51t50 20t51-20t21-51z m821-36v-425q0-22-20-32q-5-3-9-5q-122-65-206-65q-49 0-88 20l-16 7q-35 19-55 27t-51 16t-63 8q-57 0-132-24t-127-57q-9-5-19-5q-9 0-18 4q-17 11-17 31v414q0 20 17 31q19 12 44 24t63 29t85 28t87 10q62 0 117-17t116-48q21-11 50-11q68 0 173 63q12 6 17 9q17 9 35-1q17-11 17-31z" horiz-adv-x="1000" />
<glyph glyph-name="thumbs-up" unicode="&#xe838;" d="m143 100q0 15-11 25t-25 11t-25-11t-11-25t11-25t25-11t25 11t11 25z m643 321q0 29-22 50t-50 22h-196q0 32 27 89t26 89q0 55-17 81t-72 27q-14-15-21-48t-17-70t-33-61q-13-13-43-51q-2-3-13-17t-18-22t-19-24t-22-25t-22-19t-22-16t-20-5h-18v-357h18q7 0 18-1t18-4t21-6t20-7t20-7t16-5q118-41 191-41h67q107 0 107 93q0 15-2 31q16 9 26 30t10 41t-10 38q29 28 29 67q0 13-5 31t-14 26q18 1 30 26t12 45z m71 1q0-50-27-91q5-18 5-38q0-43-21-81q1-12 1-24q0-56-33-99q0-78-48-123t-126-45h-72q-54 0-106 13t-121 36q-65 23-77 23h-161q-29 0-50 21t-21 50v357q0 30 21 51t50 21h153q20 13 77 86q32 42 60 72q13 14 19 47t17 71t35 60q22 21 50 21q47 0 84-18t57-57t20-104q0-51-27-107h98q58 0 101-42t42-100z" horiz-adv-x="857.1" />
<glyph glyph-name="thumbs-down" unicode="&#xe83d;" d="m143 600q0 15-11 25t-25 11t-25-11t-11-25t11-25t25-11t25 11t11 25z m643-321q0 19-12 45t-30 26q8 10 14 27t5 30q0 39-29 67q10 18 10 38t-10 41t-26 30q2 16 2 31q0 47-27 70t-76 23h-71q-73 0-191-41q-3-1-16-6t-20-7t-20-6t-21-6t-18-4t-18-1h-18v-358h18q9 0 20-5t22-15t22-19t22-25t19-24t18-23t13-16q30-38 43-51q23-24 33-61t17-70t21-48q54 0 72 27t17 81q0 32-26 89t-27 89h196q28 0 50 22t22 49z m71-1q0-57-42-100t-101-42h-98q27-55 27-107q0-66-20-104q-19-39-57-57t-84-18q-28 0-50 21q-19 18-30 45t-14 51t-10 47t-17 36q-27 28-60 71q-57 73-77 86h-153q-29 0-50 21t-21 51v357q0 29 21 50t50 21h161q12 0 77 22q72 25 125 37t111 13h63q78 0 126-45t48-120v-3q33-43 33-99q0-13-1-24q21-38 21-81q0-20-5-38q27-41 27-91z" horiz-adv-x="857.1" />
<glyph glyph-name="thumbs-up-alt" unicode="&#xe840;" d="m143 100q0 15-11 25t-25 11q-15 0-25-11t-11-25q0-15 11-25t25-11q15 0 25 11t11 25z m89 286v-357q0-15-10-25t-26-11h-160q-15 0-25 11t-11 25v357q0 14 11 25t25 10h160q15 0 26-10t10-25z m661 0q0-48-31-83q9-25 9-43q1-42-24-76q9-32 0-66q-9-31-31-52q5-63-27-101q-36-43-110-44h-72q-37 0-80 9t-68 16t-67 22q-69 24-88 25q-15 0-26 11t-10 25v357q0 14 10 25t24 11q13 1 42 33t57 67q38 49 56 67q10 10 17 27t10 27t8 34q4 22 7 34t11 29t18 28q11 11 26 11q25 0 46-6t33-15t22-22t14-26t7-27t2-26t1-21q0-21-6-43t-10-33t-16-31q-1-4-5-10t-6-13t-5-13h155q43 0 75-32t32-75z" horiz-adv-x="928.6" />
<glyph glyph-name="thumbs-down-alt" unicode="&#xe845;" d="m143 529q0-15-11-26t-25-10q-15 0-25 10t-11 26q0 15 11 25t25 10q15 0 25-10t11-25z m89-286v357q0 15-10 25t-26 11h-160q-15 0-25-11t-11-25v-357q0-15 11-25t25-11h160q15 0 26 11t10 25z m630 83q31-34 31-83q-1-44-32-75t-75-32h-155q2-8 5-14t6-12t5-10q10-21 15-32t11-32t6-43q0-14-1-22t-2-25t-7-28t-14-25t-22-23t-33-14t-46-6q-15 0-26 11q-11 11-18 27t-11 29t-7 35q-5 23-8 33t-10 27t-17 27q-18 19-56 67q-28 36-57 68t-42 33q-14 1-24 11t-10 24v358q0 15 10 25t26 11q19 0 88 24q43 15 67 22t68 16t80 9h72q74-1 110-43q32-39 27-101q22-21 31-53q9-34 0-65q25-34 24-77q0-18-9-42z" horiz-adv-x="928.6" />
<glyph glyph-name="download" unicode="&#xe848;" d="m714 100q0 15-10 25t-25 11t-26-11t-10-25t10-25t26-11t25 11t10 25z m143 0q0 15-10 25t-26 11t-25-11t-10-25t10-25t25-11t26 11t10 25z m72 125v-179q0-22-16-37t-38-16h-821q-23 0-38 16t-16 37v179q0 22 16 38t38 16h259l75-76q33-32 76-32t76 32l76 76h259q22 0 38-16t16-38z m-182 318q10-23-8-40l-250-250q-10-10-25-10t-25 10l-250 250q-17 17-8 40q10 21 33 21h143v250q0 15 11 25t25 11h143q14 0 25-11t10-25v-250h143q24 0 33-21z" horiz-adv-x="928.6" />
<glyph glyph-name="upload" unicode="&#xe84d;" d="m714 29q0 14-10 25t-25 10t-26-10t-10-25t10-26t26-10t25 10t10 26z m143 0q0 14-10 25t-26 10t-25-10t-10-25t10-26t25-10t26 10t10 26z m72 125v-179q0-22-16-38t-38-16h-821q-23 0-38 16t-16 38v179q0 22 16 38t38 15h238q12-31 39-51t62-20h143q34 0 61 20t40 51h238q22 0 38-15t16-38z m-182 361q-9-22-33-22h-143v-250q0-15-10-25t-25-11h-143q-15 0-25 11t-11 25v250h-143q-23 0-33 22q-9 22 8 39l250 250q10 10 25 10t25-10l250-250q18-17 8-39z" horiz-adv-x="928.6" />
<glyph glyph-name="download-cloud" unicode="&#xe850;" d="m714 332q0 8-5 13t-13 5h-125v196q0 8-5 13t-12 5h-108q-7 0-12-5t-5-13v-196h-125q-8 0-13-5t-5-13q0-8 5-13l196-196q5-5 13-5t13 5l196 196q5 6 5 13z m357-125q0-89-62-151t-152-63h-607q-103 0-177 73t-73 177q0 72 39 134t105 92q-1 17-1 24q0 118 84 202t202 84q87 0 159-49t105-129q40 35 93 35q59 0 101-42t42-101q0-43-23-77q72-17 119-76t46-133z" horiz-adv-x="1071.4" />
<glyph glyph-name="upload-cloud" unicode="&#xe855;" d="m714 368q0 8-5 13l-196 196q-5 5-13 5t-13-5l-196-196q-5-6-5-13q0-8 5-13t13-5h125v-196q0-8 5-13t12-5h108q7 0 12 5t5 13v196h125q8 0 13 5t5 13z m357-161q0-89-62-151t-152-63h-607q-103 0-177 73t-73 177q0 72 39 134t105 92q-1 17-1 24q0 118 84 202t202 84q87 0 159-49t105-129q40 35 93 35q59 0 101-42t42-101q0-43-23-77q72-17 119-76t46-133z" horiz-adv-x="1071.4" />
<glyph glyph-name="reply" unicode="&#xe858;" d="m1000 225q0-93-71-252q-2-4-6-13t-7-17t-8-12q-6-10-15-10q-9 0-13 6t-5 14q0 5 1 15t2 13q3 38 3 69q0 56-10 101t-27 77t-45 56t-59 39t-74 24t-86 12t-98 3h-125v-143q0-14-10-25t-26-11t-25 11l-285 286q-11 10-11 25t11 25l285 286q11 10 25 10t26-10t10-25v-143h125q398 0 488-225q30-75 30-186z" horiz-adv-x="1000" />
<glyph glyph-name="reply-all" unicode="&#xe85c;" d="m357 246v-39q0-23-22-33q-7-3-14-3q-15 0-25 11l-285 286q-11 10-11 25t11 25l285 286q17 17 39 7q22-9 22-32v-39l-221-222q-11-11-11-25t11-25z m643-21q0-32-9-74t-22-77t-27-70t-22-51l-12-22q-4-10-15-10q-3 0-5 1q-14 4-13 19q24 223-59 315q-36 40-95 62t-150 29v-140q0-23-21-33q-8-3-14-3q-15 0-25 11l-286 286q-11 10-11 25t11 25l286 286q16 17 39 7q21-9 21-32v-147q230-15 335-123q94-97 94-284z" horiz-adv-x="1000" />
<glyph glyph-name="forward" unicode="&#xe860;" d="m1000 493q0-15-11-25l-285-286q-11-11-25-11t-26 11t-10 25v143h-125q-55 0-98-3t-86-12t-74-24t-59-39t-45-56t-27-77t-10-101q0-31 3-69q0-4 2-13t1-15q0-8-5-14t-13-6q-9 0-15 10q-4 5-8 12t-7 17t-6 13q-71 159-71 252q0 111 30 186q90 225 488 225h125v143q0 14 10 25t26 10t25-10l285-286q11-11 11-25z" horiz-adv-x="1000" />
<glyph glyph-name="quote-left" unicode="&#xe863;" d="m429 314v-214q0-45-32-76t-76-31h-214q-44 0-76 31t-31 76v393q0 58 23 111t61 91t91 61t111 23h35q15 0 26-11t10-25v-72q0-14-10-25t-26-10h-35q-59 0-101-42t-42-101v-18q0-22 16-38t37-16h125q45 0 76-31t32-76z m500 0v-214q0-45-32-76t-76-31h-214q-44 0-76 31t-31 76v393q0 58 23 111t61 91t91 61t111 23h35q15 0 26-11t10-25v-72q0-14-10-25t-26-10h-35q-59 0-101-42t-42-101v-18q0-22 15-38t38-16h125q45 0 76-31t32-76z" horiz-adv-x="928.6" />
<glyph glyph-name="quote-right" unicode="&#xe869;" d="m429 671v-392q0-58-23-111t-61-91t-91-62t-111-22h-36q-14 0-25 10t-11 26v71q0 15 11 25t25 11h36q59 0 101 42t42 101v17q0 23-16 38t-38 16h-125q-44 0-76 31t-31 76v214q0 45 31 76t76 32h214q45 0 76-32t32-76z m500 0v-392q0-58-23-111t-61-91t-91-62t-111-22h-36q-14 0-25 10t-11 26v71q0 15 11 25t25 11h36q59 0 101 42t42 101v17q0 23-16 38t-38 16h-125q-44 0-76 31t-31 76v214q0 45 31 76t76 32h214q45 0 76-32t32-76z" horiz-adv-x="928.6" />
<glyph glyph-name="code" unicode="&#xe86c;" d="m344 69l-28-28q-5-5-12-5t-13 5l-260 260q-6 6-6 13t6 13l260 260q5 6 13 6t12-6l28-28q6-5 6-13t-6-12l-219-220l219-219q6-6 6-13t-6-13z m330 596l-208-721q-2-7-9-11t-13-1l-34 9q-8 3-11 9t-2 14l208 720q3 8 9 11t13 2l35-10q7-2 11-9t1-13z m367-364l-260-260q-6-5-13-5t-13 5l-28 28q-5 6-5 13t5 13l219 219l-219 220q-5 5-5 12t5 13l28 28q6 6 13 6t13-6l260-260q5-5 5-13t-5-13z" horiz-adv-x="1071.4" />
<glyph glyph-name="export" unicode="&#xe871;" d="m786 298v-144q0-67-47-114t-114-47h-464q-67 0-114 47t-47 114v464q0 66 47 113t114 48h142q7 0 13-6t5-12q0-15-15-18q-43-15-74-34q-5-2-9-2h-62q-37 0-63-26t-27-63v-464q0-37 27-63t63-27h464q37 0 63 27t26 63v119q0 11 10 16q16 7 30 21q9 9 20 4q12-5 12-16z m132 277l-214-214q-10-11-25-11q-7 0-14 3q-22 9-22 33v107h-89q-181 0-245-73q-66-77-41-264q2-13-11-19q-5-1-7-1q-9 0-14 7q-6 8-12 17t-22 38t-28 56t-21 64t-10 68q0 27 2 50t8 51t15 49t27 45t38 42t52 34t70 27t89 17t110 6h89v107q0 24 22 33q7 3 14 3q14 0 25-11l214-214q11-11 11-25t-11-25z" horiz-adv-x="928.6" />
<glyph glyph-name="export-alt" unicode="&#xe878;" d="m561 236l196 196q11 11 11 25t-11 25l-196 197q-17 17-39 7q-22-9-22-32v-90q-66 0-121-11t-90-28t-64-44t-42-53t-25-61t-12-62t-3-62q0-101 93-226q6-6 14-6q4 0 7 1q13 5 11 19q-25 197 34 264q26 29 73 42t125 13v-89q0-24 22-33q7-3 14-3q14 0 25 11z m296 382v-536q0-66-47-113t-114-48h-535q-67 0-114 48t-47 113v536q0 66 47 113t114 48h535q67 0 114-48t47-113z" horiz-adv-x="857.1" />
<glyph glyph-name="pencil" unicode="&#xe877;" d="m203-7l50 51l-131 131l-51-51v-60h72v-71h60z m291 518q0 12-12 12q-5 0-9-4l-303-302q-4-4-4-10q0-12 13-12q5 0 9 4l303 302q3 4 3 10z m-30 107l232-232l-464-465h-232v233z m381-54q0-29-20-50l-93-93l-232 233l93 92q20 21 50 21q29 0 51-21l131-131q20-22 20-51z" horiz-adv-x="857.1" />
<glyph glyph-name="pencil-squared" unicode="&#xe876;" d="m225 232l85-85l-29-29h-31v53h-54v32z m231 217q8-7-1-16l-163-163q-9-9-16-1q-8 7 1 16l163 163q9 9 16 1z m-152-385l303 304l-161 161l-303-304v-161h161z m339 340l51 51q16 16 16 38t-16 38l-85 85q-15 15-38 15t-38-15l-51-52z m214 214v-536q0-66-47-113t-114-48h-535q-67 0-114 48t-47 113v536q0 66 47 113t114 48h535q67 0 114-48t47-113z" horiz-adv-x="857.1" />
<glyph glyph-name="edit" unicode="&#xe831;" d="m496 189l64 65l-85 85l-64-65v-31h53v-54h32z m245 402q-9 9-18 0l-196-196q-9-9 0-18t18 0l196 196q9 9 0 18z m45-331v-106q0-67-47-114t-114-47h-464q-67 0-114 47t-47 114v464q0 66 47 113t114 48h464q35 0 65-14q9-4 10-13q2-10-5-16l-27-28q-8-8-18-4q-13 3-25 3h-464q-37 0-63-26t-27-63v-464q0-37 27-63t63-27h464q37 0 63 27t26 63v70q0 7 5 12l36 36q8 8 20 4t11-16z m-54 411l161-160l-375-375h-161v160z m248-73l-51-52l-161 161l51 51q16 16 38 16t38-16l85-84q16-16 16-38t-16-38z" horiz-adv-x="1000" />
<glyph glyph-name="print" unicode="&#xe834;" d="m214-7h500v143h-500v-143z m0 357h500v214h-89q-22 0-38 16t-16 38v89h-357v-357z m643-36q0 15-10 25t-26 11t-25-11t-10-25t10-25t25-10t26 10t10 25z m72 0v-232q0-7-6-12t-12-6h-125v-89q0-22-16-38t-38-16h-536q-22 0-37 16t-16 38v89h-125q-7 0-13 6t-5 12v232q0 44 32 76t75 31h36v304q0 22 16 38t37 16h375q23 0 50-12t42-26l85-85q15-16 27-43t11-49v-143h35q45 0 76-31t32-76z" horiz-adv-x="928.6" />
<glyph glyph-name="retweet" unicode="&#xe839;" d="m714 11q0-8-5-13t-13-5h-535q-5 0-8 1t-5 4t-3 4t-2 7t0 6v335h-107q-15 0-25 11t-11 25q0 13 8 23l179 214q11 12 27 12t28-12l178-214q9-10 9-23q0-15-11-25t-25-11h-107v-214h321q9 0 14-6l89-108q4-6 4-11z m357 232q0-14-8-23l-179-214q-11-13-27-13t-27 13l-179 214q-8 9-8 23q0 14 10 25t26 11h107v214h-322q-9 0-14 7l-89 107q-4 5-4 11q0 7 5 12t13 6h536q4 0 7-1t5-4t3-5t2-6t1-7v-334h107q14 0 25-11t10-25z" horiz-adv-x="1071.4" />
<glyph glyph-name="keyboard" unicode="&#xe83c;" d="m214 198v-53q0-9-9-9h-53q-9 0-9 9v53q0 9 9 9h53q9 0 9-9z m72 143v-53q0-9-9-9h-125q-9 0-9 9v53q0 9 9 9h125q9 0 9-9z m-72 143v-54q0-9-9-9h-53q-9 0-9 9v54q0 9 9 9h53q9 0 9-9z m572-286v-53q0-9-9-9h-482q-9 0-9 9v53q0 9 9 9h482q9 0 9-9z m-357 143v-53q0-9-9-9h-54q-9 0-9 9v53q0 9 9 9h54q9 0 9-9z m-72 143v-54q0-9-9-9h-53q-9 0-9 9v54q0 9 9 9h53q9 0 9-9z m214-143v-53q0-9-8-9h-54q-9 0-9 9v53q0 9 9 9h54q8 0 8-9z m-71 143v-54q0-9-9-9h-53q-9 0-9 9v54q0 9 9 9h53q9 0 9-9z m214-143v-53q0-9-9-9h-53q-9 0-9 9v53q0 9 9 9h53q9 0 9-9z m215-143v-53q0-9-9-9h-54q-9 0-9 9v53q0 9 9 9h54q9 0 9-9z m-286 286v-54q0-9-9-9h-54q-9 0-9 9v54q0 9 9 9h54q9 0 9-9z m143 0v-54q0-9-9-9h-54q-9 0-9 9v54q0 9 9 9h54q9 0 9-9z m143 0v-196q0-9-9-9h-125q-9 0-9 9v53q0 9 9 9h62v134q0 9 9 9h54q9 0 9-9z m71-420v500h-929v-500h929z m71 500v-500q0-29-21-50t-50-21h-929q-29 0-50 21t-21 50v500q0 30 21 51t50 21h929q30 0 50-21t21-51z" horiz-adv-x="1071.4" />
<glyph glyph-name="gamepad" unicode="&#xe841;" d="m464 243v71q0 8-5 13t-13 5h-107v107q0 8-5 13t-13 5h-71q-8 0-13-5t-5-13v-107h-107q-8 0-13-5t-5-13v-71q0-8 5-13t13-5h107v-107q0-8 5-13t13-5h71q8 0 13 5t5 13v107h107q8 0 13 5t5 13z m322-36q0 30-21 51t-51 21t-50-21t-21-51t21-50t50-21t51 21t21 50z m143 143q0 30-21 51t-51 20t-50-20t-21-51t21-50t50-21t51 21t21 50z m142-71q0-119-83-202t-202-84q-107 0-189 71h-123q-81-71-188-71q-119 0-202 84t-84 202t84 202t202 83h500q118 0 202-83t83-202z" horiz-adv-x="1071.4" />
<glyph glyph-name="comment-1" unicode="&#xe844;" d="m1000 350q0-97-67-179t-182-130t-251-48q-39 0-81 4q-110-97-257-135q-27-8-63-12q-10-1-17 5t-10 16v1q-2 2 0 6t1 6t2 5l4 5t4 5t4 5q4 5 17 19t20 22t17 22t18 28t15 33t15 42q-88 50-138 123t-51 157q0 73 40 139t106 114t160 76t194 28q136 0 251-48t182-130t67-179z" horiz-adv-x="1000" />
<glyph glyph-name="chat-1" unicode="&#xe849;" d="m786 421q0-77-53-143t-143-104t-197-38q-48 0-98 9q-70-49-155-72q-21-5-48-9h-2q-6 0-12 5t-6 12q-1 1-1 3t1 4t1 3l1 3t2 3t2 3t3 3t2 2q3 3 13 14t15 16t12 17t14 21t11 25q-69 40-108 98t-40 125q0 78 53 144t143 104t197 38t197-38t143-104t53-144z m214-142q0-67-40-126t-108-98q5-14 11-25t14-21t13-16t14-17t13-14q0 0 2-2t3-3t2-3t2-3l1-3t1-3t1-4t-1-3q-2-8-7-13t-13-4q-27 4-48 9q-85 23-155 72q-50-9-98-9q-151 0-263 74q32-3 49-3q90 0 172 25t148 72q69 52 107 119t37 141q0 43-13 85q72-39 114-99t42-128z" horiz-adv-x="1000" />
<glyph glyph-name="comment-2" unicode="&#xe84c;" d="m500 636q-114 0-213-39t-157-105t-59-142q0-62 40-119t113-98l48-28l-15-54q-13-50-39-95q85 35 154 95l24 21l31-3q39-5 73-5q114 0 213 39t157 105t59 142t-59 142t-157 105t-213 39z m500-286q0-97-67-179t-182-130t-251-48q-39 0-81 4q-110-97-257-135q-27-7-63-12h-3q-8 0-15 6t-9 15v1q-2 2 0 7t1 5t2 5l4 5t4 5t4 5q4 5 17 19t20 22t17 22t18 28t15 33t15 42q-88 50-138 123t-51 157q0 97 67 179t182 130t251 48t251-48t182-130t67-179z" horiz-adv-x="1000" />
<glyph glyph-name="chat" unicode="&#xe851;" d="m393 636q-85 0-160-29t-118-79t-44-107q0-45 30-88t83-73l54-32l-19-46q19 11 34 21l25 18l30-6q43-8 85-8q85 0 159 29t118 79t44 106t-44 107t-118 79t-159 29z m0 71q106 0 197-38t143-104t53-144t-53-143t-143-104t-197-38q-48 0-98 9q-70-49-155-72q-21-5-48-9h-2q-6 0-12 5t-6 12q-1 1-1 3t1 4t1 3l1 3t2 3t2 3t3 3t2 2q3 3 13 14t15 16t12 17t14 21t11 25q-69 40-108 98t-40 125q0 78 53 144t143 104t197 38z m459-652q5-14 11-25t14-21t13-16t14-17t13-14q0 0 2-2t3-3t2-3t2-3l1-3t1-3t1-4t-1-3q-2-8-7-13t-13-4q-27 4-48 9q-85 23-155 72q-50-9-98-9q-151 0-263 74q32-3 49-3q90 0 172 25t148 72q69 52 107 119t37 141q0 43-13 85q72-39 114-99t42-128q0-67-40-126t-108-98z" horiz-adv-x="1000" />
<glyph glyph-name="bell" unicode="&#xe854;" d="m473-96q0 8-9 8q-33 0-56 24t-24 57q0 9-9 9t-9-9q0-41 29-70t69-28q9 0 9 9z m-371 160h724q-91 101-137 230t-46 270q0 143-179 143t-178-143q0-141-46-270t-138-230z m827 0q0-29-22-50t-50-21h-250q0-59-42-101t-101-42t-101 42t-42 101h-250q-29 0-50 21t-21 50q106 90 160 222t54 278q0 92 54 146t147 66q-4 10-4 20q0 23 15 38t38 16t38-16t16-38q0-10-5-20q94-11 148-66t53-146q0-146 54-278t161-222z" horiz-adv-x="928.6" />
<glyph glyph-name="bell-alt" unicode="&#xe859;" d="m473-96q0 8-9 8q-33 0-56 24t-24 57q0 9-9 9t-9-9q0-41 29-70t69-28q9 0 9 9z m456 160q0-29-22-50t-50-21h-250q0-59-42-101t-101-42t-101 42t-42 101h-250q-29 0-50 21t-21 50q106 90 160 222t54 278q0 92 54 146t147 66q-4 10-4 20q0 23 15 38t38 16t38-16t16-38q0-10-5-20q94-11 148-66t53-146q0-146 54-278t161-222z" horiz-adv-x="928.6" />
<glyph glyph-name="attention-alt" unicode="&#xe85e;" d="m286 154v-125q0-15-11-25t-25-11h-143q-14 0-25 11t-11 25v125q0 14 11 25t25 10h143q15 0 25-10t11-25z m16 589l-15-429q-1-14-12-25t-25-10h-143q-14 0-25 10t-12 25l-15 429q-1 14 9 25t25 11h179q14 0 25-11t9-25z" horiz-adv-x="357.1" />
<glyph glyph-name="attention" unicode="&#xe85f;" d="m571 83v106q0 8-5 13t-12 5h-108q-7 0-12-5t-5-13v-106q0-8 5-13t12-6h108q7 0 12 6t5 13z m-1 208l10 257q0 6-5 10q-7 6-14 6h-122q-7 0-14-6q-5-4-5-12l9-255q0-5 6-9t13-3h103q8 0 13 3t6 9z m-7 522l428-786q20-35-1-70q-10-17-26-26t-35-10h-858q-18 0-35 10t-26 26q-21 35-1 70l429 786q9 17 26 27t36 10t36-10t27-27z" horiz-adv-x="1000" />
<glyph glyph-name="attention-circle" unicode="&#xe864;" d="m429 779q116 0 215-58t156-156t57-215t-57-215t-156-156t-215-58t-216 58t-155 156t-58 215t58 215t155 156t216 58z m71-696v106q0 8-5 13t-12 5h-107q-8 0-13-5t-6-13v-106q0-8 6-13t13-6h107q7 0 12 6t5 13z m-1 192l10 346q0 7-6 10q-5 5-13 5h-123q-8 0-13-5q-6-3-6-10l10-346q0-6 5-10t14-4h103q8 0 13 4t6 10z" horiz-adv-x="857.1" />
<glyph glyph-name="location" unicode="&#xe868;" d="m429 493q0 59-42 101t-101 42t-101-42t-42-101t42-101t101-42t101 42t42 101z m142 0q0-61-18-100l-203-432q-9-18-27-29t-37-11t-38 11t-26 29l-204 432q-18 39-18 100q0 118 84 202t202 84t202-84t83-202z" horiz-adv-x="571.4" />
<glyph glyph-name="direction" unicode="&#xe86d;" d="m782 655l-357-714q-10-20-32-20q-3 0-8 1q-13 3-20 13t-8 22v322h-321q-13 0-22 7t-13 20t2 23t17 17l714 357q7 4 16 4q15 0 25-10q8-8 10-20t-3-22z" horiz-adv-x="785.7" />
<glyph glyph-name="compass" unicode="&#xe870;" d="m357 243l143 71l-143 72v-143z m214 330v-303l-285-143v303z m161-223q0 83-41 152t-110 111t-152 41t-153-41t-110-111t-41-152t41-152t110-111t153-41t152 41t110 111t41 152z m125 0q0-117-57-215t-156-156t-215-58t-216 58t-155 156t-58 215t58 215t155 156t216 58t215-58t156-156t57-215z" horiz-adv-x="857.1" />
<glyph glyph-name="trash" unicode="&#xe879;" d="m286 439v-321q0-8-5-13t-13-5h-36q-8 0-13 5t-5 13v321q0 8 5 13t13 5h36q8 0 13-5t5-13z m143 0v-321q0-8-5-13t-13-5h-36q-8 0-13 5t-5 13v321q0 8 5 13t13 5h36q8 0 13-5t5-13z m142 0v-321q0-8-5-13t-12-5h-36q-8 0-13 5t-5 13v321q0 8 5 13t13 5h36q7 0 12-5t5-13z m72-404v529h-500v-529q0-12 4-22t8-15t6-5h464q2 0 6 5t8 15t4 22z m-375 601h250l-27 65q-4 5-9 6h-177q-6-1-10-6z m518-18v-36q0-8-5-13t-13-5h-54v-529q0-46-26-80t-63-34h-464q-37 0-63 33t-27 79v531h-53q-8 0-13 5t-5 13v36q0 8 5 13t13 5h172l39 93q9 21 31 35t44 15h178q22 0 44-15t30-35l39-93h173q8 0 13-5t5-13z" horiz-adv-x="785.7" />
<glyph glyph-name="doc" unicode="&#xe87a;" d="m71-7h572v428h-232q-23 0-38 16t-16 38v232h-286v-714z m358 500h209q-5 16-12 23l-175 174q-6 7-22 13v-210z m285-18v-500q0-22-15-38t-38-16h-607q-23 0-38 16t-16 38v750q0 22 16 38t38 16h357q22 0 49-12t42-26l174-175q16-15 27-42t11-49z" horiz-adv-x="714.3" />
<glyph glyph-name="docs" unicode="&#xe87b;" d="m946 636q23 0 38-16t16-38v-678q0-23-16-38t-38-16h-535q-23 0-38 16t-16 38v160h-303q-23 0-38 16t-16 38v375q0 22 11 49t27 42l228 228q15 16 42 27t49 11h232q23 0 38-16t16-38v-183q38 23 71 23h232z m-303-119l-167-167h167v167z m-357 214l-167-167h167v167z m109-361l176 176v233h-214v-233q0-22-15-38t-38-15h-233v-357h286v143q0 22 11 49t27 42z m534-449v643h-215v-232q0-22-15-38t-38-15h-232v-358h500z" horiz-adv-x="1000" />
<glyph glyph-name="doc-text" unicode="&#xe832;" d="m571 189v-35q0-8-5-13t-12-5h-393q-8 0-13 5t-5 13v35q0 8 5 13t13 5h393q7 0 12-5t5-13z m0 143v-36q0-7-5-12t-12-5h-393q-8 0-13 5t-5 12v36q0 8 5 13t13 5h393q7 0 12-5t5-13z m-500-339h572v428h-232q-23 0-38 16t-16 38v232h-286v-714z m358 500h209q-5 16-12 23l-175 174q-6 7-22 13v-210z m285-18v-500q0-22-15-38t-38-16h-607q-23 0-38 16t-16 38v750q0 22 16 38t38 16h357q22 0 49-12t42-26l174-175q16-15 27-42t11-49z" horiz-adv-x="714.3" />
<glyph glyph-name="doc-inv" unicode="&#xe833;" d="m714 421v-446q0-22-15-38t-38-16h-607q-23 0-38 16t-16 38v750q0 22 16 38t38 16h303v-304q0-22 16-38t38-16h303z m-1 72h-284v284q45-8 73-36l174-175q28-27 37-73z" horiz-adv-x="714.3" />
<glyph glyph-name="doc-text-inv" unicode="&#xe83a;" d="m571 82v36q0 8-5 13t-12 5h-393q-8 0-13-5t-5-13v-36q0-8 5-13t13-5h393q7 0 12 5t5 13z m0 143v36q0 8-5 13t-12 5h-393q-8 0-13-5t-5-13v-36q0-8 5-13t13-5h393q7 0 12 5t5 13z m143 196v-446q0-22-15-38t-38-16h-607q-23 0-38 16t-16 38v750q0 22 16 38t38 16h303v-304q0-22 16-38t38-16h303z m-1 72h-284v284q45-8 73-36l174-175q28-27 37-73z" horiz-adv-x="714.3" />
<glyph glyph-name="folder" unicode="&#xe83b;" d="m929 511v-393q0-51-37-88t-88-37h-679q-51 0-88 37t-37 88v536q0 51 37 88t88 37h179q51 0 88-37t37-88v-18h375q51 0 88-37t37-88z" horiz-adv-x="928.6" />
<glyph glyph-name="folder-open" unicode="&#xe842;" d="m1049 319q0-18-18-37l-187-221q-24-28-67-48t-81-20h-607q-19 0-33 7t-15 24q0 17 17 37l188 221q24 28 67 48t80 20h607q19 0 34-7t15-24z m-192 192v-90h-464q-53 0-110-26t-92-67l-188-221l-2-3q0 2-1 7t0 7v536q0 51 37 88t88 37h179q51 0 88-37t37-88v-18h303q51 0 88-37t37-88z" horiz-adv-x="1071.4" />
<glyph glyph-name="folder-empty" unicode="&#xe843;" d="m857 118v393q0 22-15 38t-38 15h-393q-23 0-38 16t-16 38v36q0 22-15 38t-38 15h-179q-22 0-38-15t-16-38v-536q0-22 16-38t38-16h679q22 0 38 16t15 38z m72 393v-393q0-51-37-88t-88-37h-679q-51 0-88 37t-37 88v536q0 51 37 88t88 37h179q51 0 88-37t37-88v-18h375q51 0 88-37t37-88z" horiz-adv-x="928.6" />
<glyph glyph-name="folder-open-empty" unicode="&#xe84a;" d="m994 330q0 20-30 20h-607q-22 0-48-12t-39-29l-164-203q-11-13-11-22q0-20 30-20h607q22 0 48 13t40 29l164 203q10 12 10 21z m-637 91h429v90q0 22-16 38t-38 15h-321q-23 0-38 16t-16 38v36q0 22-15 38t-38 15h-179q-22 0-38-15t-16-38v-476l143 175q25 30 65 49t78 19z m708-91q0-34-25-66l-165-203q-24-30-65-49t-78-19h-607q-51 0-88 37t-37 88v536q0 51 37 88t88 37h179q51 0 88-37t37-88v-18h303q51 0 88-37t37-88v-90h107q30 0 56-13t37-40q8-17 8-38z" horiz-adv-x="1071.4" />
<glyph glyph-name="box" unicode="&#xe84b;" d="m607 386q0 14-10 25t-26 10h-142q-15 0-26-10t-10-25t10-25t26-11h142q15 0 26 11t10 25z m322 107v-536q0-14-11-25t-25-11h-786q-14 0-25 11t-11 25v536q0 14 11 25t25 11h786q14 0 25-11t11-25z m35 250v-143q0-15-10-25t-25-11h-858q-14 0-25 11t-10 25v143q0 14 10 25t25 11h858q14 0 25-11t10-25z" horiz-adv-x="1000" />
<glyph glyph-name="rss-1" unicode="&#xe852;" d="m214 100q0-45-31-76t-76-31t-76 31t-31 76t31 76t76 31t76-31t31-76z m286-69q1-15-9-26q-11-12-27-12h-75q-14 0-24 9t-11 23q-12 128-103 219t-219 103q-14 1-23 11t-9 24v75q0 16 12 26q9 10 24 10h3q89-7 170-45t145-101q63-63 101-145t45-171z m286-1q1-15-10-26q-10-11-26-11h-80q-14 0-25 10t-11 23q-6 120-56 228t-129 188t-188 129t-227 57q-14 0-24 11t-10 24v80q0 15 11 26q10 10 25 10h1q147-8 280-67t238-164q104-104 164-238t67-280z" horiz-adv-x="785.7" />
<glyph glyph-name="rss-squared" unicode="&#xe853;" d="m286 136q0 29-21 50t-51 21t-50-21t-21-50t21-51t50-21t51 21t21 51z m196-53q-8 130-99 221t-221 99q-8 1-14-5t-5-13v-71q0-8 5-13t12-5q86-6 147-68t67-147q1-7 6-12t12-5h72q7 0 13 6t5 13z m214 0q-3 86-31 166t-78 145t-115 114t-145 78t-166 31q-8 1-13-5q-5-5-5-13v-71q0-7 5-12t12-6q114-4 211-62t156-155t62-211q0-8 5-13t13-5h71q7 0 13 6q6 5 5 13z m161 535v-536q0-66-47-113t-114-48h-535q-67 0-114 48t-47 113v536q0 66 47 113t114 48h535q67 0 114-48t47-113z" horiz-adv-x="857.1" />
<glyph glyph-name="phone" unicode="&#xe85a;" d="m786 158q0-15-6-39t-12-38q-11-28-68-60q-52-28-103-28q-16 0-30 2t-32 7t-26 8t-31 11t-28 10q-54 20-97 47q-72 44-148 120t-120 148q-27 43-46 97q-2 5-10 28t-12 31t-8 26t-7 32t-2 29q0 52 29 104q31 56 59 68q14 6 38 12t39 6q8 0 12-2q10-3 30-43q6-10 16-30t20-35t17-30q2-2 10-14t12-20t4-16q0-11-16-28t-35-30t-34-30t-16-25q0-5 3-13t4-11t8-14t7-10q42-77 97-132t131-97q1 0 10-6t14-8t11-5t13-2q10 0 25 15t30 35t31 35t28 16q7 0 15-4t20-12t14-10q14-8 30-17t35-20t31-17q39-19 42-29q2-4 2-12z" horiz-adv-x="785.7" />
<glyph glyph-name="phone-squared" unicode="&#xe85b;" d="m714 184q0 6-1 9q-1 5-21 17t-50 27l-29 16q-3 2-11 8t-14 8t-12 3q-10 0-26-18t-32-37t-24-18q-4 0-9 2t-9 3t-9 6t-8 4q-56 31-95 71t-71 95q-1 2-5 8t-5 9t-4 9t-2 9q0 8 12 19t25 21t25 23t11 20q0 5-2 12t-9 14t-7 10q-2 4-8 16t-14 25t-15 27t-14 23t-9 10t-9 1q-27 0-56-13q-26-11-45-52t-19-73q0-9 1-19t3-17t5-19t6-16t7-18t6-17q33-92 121-179t178-121q4-1 17-6t19-7t16-5t18-5t17-3t19-2q32 0 73 19t53 45q12 30 12 56z m143 434v-536q0-66-47-113t-114-48h-535q-67 0-114 48t-47 113v536q0 66 47 113t114 48h535q67 0 114-48t47-113z" horiz-adv-x="857.1" />
<glyph glyph-name="menu" unicode="&#xe866;" d="m857 100v-71q0-15-10-25t-26-11h-785q-15 0-25 11t-11 25v71q0 15 11 25t25 11h785q15 0 26-11t10-25z m0 286v-72q0-14-10-25t-26-10h-785q-15 0-25 10t-11 25v72q0 14 11 25t25 10h785q15 0 26-10t10-25z m0 285v-71q0-15-10-25t-26-11h-785q-15 0-25 11t-11 25v71q0 15 11 26t25 10h785q15 0 26-10t10-26z" horiz-adv-x="857.1" />
<glyph glyph-name="cog" unicode="&#xe865;" d="m571 350q0 59-41 101t-101 42t-101-42t-42-101t42-101t101-42t101 42t41 101z m286 61v-124q0-7-4-13t-11-7l-104-16q-10-30-21-51q19-27 59-77q6-6 6-13t-5-13q-15-21-55-61t-53-39q-7 0-14 5l-77 60q-25-13-51-21q-9-76-16-104q-4-16-20-16h-124q-8 0-14 5t-6 12l-16 103q-27 9-50 21l-79-60q-6-5-14-5q-8 0-14 6q-70 64-92 94q-4 5-4 13q0 6 5 12q8 12 28 37t30 40q-15 28-23 55l-102 15q-7 1-11 7t-5 13v124q0 7 5 13t10 7l104 16q8 25 22 51q-23 32-60 77q-6 7-6 14q0 5 5 12q15 20 55 60t53 40q7 0 15-5l77-60q24 13 50 21q9 76 17 104q3 15 20 15h124q7 0 13-4t7-12l15-103q28-9 50-21l80 60q5 5 13 5q7 0 14-5q72-67 92-95q4-5 4-13q0-6-4-12q-9-12-29-38t-30-39q14-28 23-55l102-15q7-1 12-7t4-13z" horiz-adv-x="857.1" />
<glyph glyph-name="cog-alt" unicode="&#xe867;" d="m500 350q0 59-42 101t-101 42t-101-42t-42-101t42-101t101-42t101 42t42 101z m429-286q0 29-22 51t-50 21t-50-21t-21-51q0-29 21-50t50-21t51 21t21 50z m0 572q0 29-22 50t-50 21t-50-21t-21-50q0-30 21-51t50-21t51 21t21 51z m-215-235v-103q0-6-4-11t-9-6l-86-14q-6-19-18-42q19-27 50-64q4-6 4-11q0-7-4-11q-13-17-46-50t-44-33q-6 0-11 4l-64 50q-21-11-43-17q-6-60-13-87q-4-13-17-13h-104q-6 0-11 4t-5 10l-13 85q-19 6-42 18l-66-50q-4-4-11-4q-6 0-12 4q-80 75-80 90q0 5 4 10q5 8 23 30t26 34q-13 24-20 46l-85 13q-5 1-9 5t-4 11v103q0 6 4 11t9 6l86 14q7 19 18 42q-19 27-50 64q-4 6-4 11q0 7 4 11q12 17 46 50t44 33q6 0 12-4l64-50q19 10 43 18q6 60 13 86q3 13 16 13h104q6 0 11-4t6-10l13-85q19-6 41-17l66 49q5 4 11 4q7 0 12-4q81-75 81-90q0-5-4-10q-7-9-24-30t-25-34q13-27 19-46l85-12q5-2 9-6t4-11z m357-298v-78q0-9-83-17q-6-15-16-29q28-63 28-77q0-2-2-4q-68-40-69-40q-5 0-26 27t-29 37q-11-1-17-1t-17 1q-7-11-29-37t-25-27q-1 0-69 40q-3 2-3 4q0 14 29 77q-10 14-17 29q-83 8-83 17v78q0 9 83 18q7 16 17 29q-29 63-29 77q0 2 3 4q2 1 19 11t33 19t17 9q4 0 25-26t29-38q12 1 17 1t17-1q28 40 51 63l4 1q2 0 69-39q2-2 2-4q0-14-28-77q9-13 16-29q83-9 83-18z m0 572v-78q0-9-83-18q-6-15-16-29q28-63 28-77q0-2-2-4q-68-39-69-39q-5 0-26 26t-29 38q-11-1-17-1t-17 1q-7-12-29-38t-25-26q-1 0-69 39q-3 2-3 4q0 14 29 77q-10 14-17 29q-83 9-83 18v78q0 9 83 17q7 16 17 29q-29 63-29 77q0 2 3 4q2 1 19 11t33 19t17 9q4 0 25-26t29-38q12 2 17 2t17-2q28 40 51 63l4 1q2 0 69-39q2-2 2-4q0-14-28-77q9-13 16-29q83-8 83-17z" horiz-adv-x="1071.4" />
<glyph glyph-name="wrench" unicode="&#xe86e;" d="m214 29q0 14-10 25t-25 10t-26-10t-10-25t10-26t26-10t25 10t10 26z m360 234l-381-381q-21-20-50-20q-29 0-51 20l-59 61q-21 20-21 50q0 29 21 51l380 380q22-55 64-97t97-64z m353 243q0-22-12-59q-27-75-92-122t-144-46q-104 0-177 73t-73 177t73 176t177 74q32 0 67-10t60-26q9-6 9-15t-9-16l-163-94v-125l108-60q2 2 44 27t75 45t40 20q8 0 13-5t4-14z" horiz-adv-x="928.6" />
<glyph glyph-name="basket" unicode="&#xe86f;" d="m357-7q0-30-21-51t-50-21t-51 21t-21 51t21 50t51 21t50-21t21-50z m500 0q0-30-21-51t-50-21t-51 21t-21 51t21 50t51 21t50-21t21-50z m72 607v-286q0-13-9-23t-23-12l-583-68q1-4 3-12t3-15t1-13q0-8-13-35h513q15 0 26-11t10-25t-10-25t-26-11h-571q-14 0-25 11t-11 25q0 8 6 22t17 33t11 21l-98 460h-114q-15 0-25 10t-11 25t11 26t25 10h143q9 0 16-3t11-9t7-14t4-15t3-16t3-14h670q14 0 25-11t11-25z" horiz-adv-x="928.6" />
<glyph glyph-name="calendar" unicode="&#xe87e;" d="m71-79h161v161h-161v-161z m197 0h178v161h-178v-161z m-197 197h161v178h-161v-178z m197 0h178v178h-178v-178z m-197 214h161v161h-161v-161z m411-411h179v161h-179v-161z m-214 411h178v161h-178v-161z m428-411h161v161h-161v-161z m-214 197h179v178h-179v-178z m-196 482v161q0 7-6 12t-12 6h-36q-7 0-12-6t-6-12v-161q0-7 6-13t12-5h36q7 0 12 5t6 13z m410-482h161v178h-161v-178z m-214 214h179v161h-179v-161z m214 0h161v161h-161v-161z m18 268v161q0 7-5 12t-13 6h-35q-8 0-13-6t-5-12v-161q0-7 5-13t13-5h35q8 0 13 5t5 13z m215 36v-715q0-29-22-50t-50-21h-786q-29 0-50 21t-21 50v715q0 29 21 50t50 21h72v54q0 36 26 63t63 26h36q37 0 63-26t26-63v-54h214v54q0 36 27 63t63 26h35q37 0 63-26t27-63v-54h71q29 0 50-21t22-50z" horiz-adv-x="928.6" />
<glyph glyph-name="calendar-empty" unicode="&#xe87d;" d="m71-79h786v572h-786v-572z m215 679v161q0 8-5 13t-13 5h-36q-8 0-13-5t-5-13v-161q0-8 5-13t13-5h36q8 0 13 5t5 13z m428 0v161q0 8-5 13t-13 5h-35q-8 0-13-5t-5-13v-161q0-8 5-13t13-5h35q8 0 13 5t5 13z m215 36v-715q0-29-22-50t-50-21h-786q-29 0-50 21t-21 50v715q0 29 21 50t50 21h72v54q0 36 26 63t63 26h36q37 0 63-26t26-63v-54h214v54q0 36 27 63t63 26h35q37 0 63-26t27-63v-54h71q29 0 50-21t22-50z" horiz-adv-x="928.6" />
<glyph glyph-name="login" unicode="&#xe87c;" d="m661 350q0-14-11-25l-303-304q-11-10-26-10t-25 10t-10 25v161h-250q-15 0-25 11t-11 25v214q0 15 11 25t25 11h250v161q0 14 10 25t25 10t26-10l303-304q11-10 11-25z m196 196v-392q0-67-47-114t-114-47h-178q-7 0-13 5t-5 13q0 2-1 11t0 15t2 13t5 11t12 3h178q37 0 63 27t27 63v392q0 37-27 63t-63 27h-174t-6 0t-6 2t-5 3t-4 5t-1 8q0 2-1 11t0 15t2 13t5 11t12 3h178q67 0 114-47t47-114z" horiz-adv-x="857.1" />
<glyph glyph-name="logout" unicode="&#xe87f;" d="m357 46q0-2 1-11t0-14t-2-14t-5-11t-12-3h-178q-67 0-114 47t-47 114v392q0 67 47 114t114 47h178q8 0 13-5t5-13q0-2 1-11t0-15t-2-13t-5-11t-12-3h-178q-37 0-63-27t-27-63v-392q0-37 27-63t63-27h174t6 0t7-2t4-3t4-5t1-8z m518 304q0-14-11-25l-303-304q-11-10-25-10t-25 10t-11 25v161h-250q-14 0-25 11t-11 25v214q0 15 11 25t25 11h250v161q0 14 11 25t25 10t25-10l303-304q11-10 11-25z" horiz-adv-x="928.6" />
<glyph glyph-name="mic" unicode="&#xe882;" d="m643 457v-71q0-124-82-215t-204-104v-74h143q15 0 25-11t11-25t-11-25t-25-11h-357q-15 0-25 11t-11 25t11 25t25 11h143v74q-121 13-204 104t-82 215v71q0 15 11 25t25 11t25-11t10-25v-71q0-104 74-177t176-73t177 73t73 177v71q0 15 11 25t25 11t25-11t11-25z m-143 214v-285q0-74-52-126t-127-53t-126 53t-52 126v285q0 74 52 127t126 52t127-52t52-127z" horiz-adv-x="642.9" />
<glyph glyph-name="mute" unicode="&#xe883;" d="m151 323l-56-57q-24 58-24 120v71q0 15 11 25t25 11t25-11t11-25v-71q0-30 8-63z m622 336l-202-202v-71q0-74-52-126t-126-53q-31 0-61 11l-54-54q55-28 115-28q103 0 176 73t74 177v71q0 15 10 25t26 11t25-11t10-25v-71q0-124-82-215t-203-104v-74h142q15 0 26-11t10-25t-10-25t-26-11h-357q-14 0-25 11t-10 25t10 25t25 11h143v74q-70 7-131 45l-142-142q-5-6-13-6t-12 6l-46 46q-6 5-6 13t6 12l688 689q6 6 13 6t13-6l46-46q5-5 5-13t-5-12z m-212 73l-347-346v285q0 74 53 127t126 52q57 0 103-33t65-85z" horiz-adv-x="785.7" />
<glyph glyph-name="volume-off" unicode="&#xe886;" d="m429 654v-608q0-14-11-25t-25-10t-25 10l-186 186h-146q-15 0-25 11t-11 25v214q0 15 11 25t25 11h146l186 186q10 10 25 10t25-10t11-25z" horiz-adv-x="428.6" />
<glyph glyph-name="volume-down" unicode="&#xe887;" d="m429 654v-608q0-14-11-25t-25-10t-25 10l-186 186h-146q-15 0-25 11t-11 25v214q0 15 11 25t25 11h146l186 186q10 10 25 10t25-10t11-25z m214-304q0-42-24-79t-63-52q-5-3-14-3q-14 0-25 10t-10 26q0 12 6 20t17 14t19 12t16 20t6 32t-6 32t-16 20t-19 12t-17 14t-6 20q0 15 10 26t25 10q9 0 14-3q39-15 63-52t24-79z" horiz-adv-x="642.9" />
<glyph glyph-name="volume-up" unicode="&#xe889;" d="m429 654v-608q0-14-11-25t-25-10t-25 10l-186 186h-146q-15 0-25 11t-11 25v214q0 15 11 25t25 11h146l186 186q10 10 25 10t25-10t11-25z m214-304q0-42-24-79t-63-52q-5-3-14-3q-14 0-25 10t-10 26q0 12 6 20t17 14t19 12t16 20t6 32t-6 32t-16 20t-19 12t-17 14t-6 20q0 15 10 26t25 10q9 0 14-3q39-15 63-52t24-79z m143 0q0-85-48-158t-125-105q-8-3-14-3q-15 0-26 11t-10 25q0 22 21 33q32 16 43 25q41 30 64 75t23 97t-23 97t-64 75q-11 9-43 25q-21 11-21 33q0 14 10 25t25 11q7 0 15-3q78-33 125-105t48-158z m143 0q0-128-71-236t-189-158q-7-3-14-3q-15 0-26 11t-10 25q0 20 22 33q4 2 12 6t13 6q25 14 45 28q69 51 108 127t38 161t-38 161t-108 127q-20 14-45 28q-4 3-13 6t-12 6q-22 13-22 33q0 14 10 25t26 11q7 0 14-3q118-51 189-158t71-236z" horiz-adv-x="928.6" />
<glyph glyph-name="headphones" unicode="&#xe88b;" d="m929 356q0-93-34-176l-11-27l-103-18q-13-47-51-77t-87-29v-18q0-8-5-13t-13-5h-36q-8 0-13 5t-5 13v321q0 8 5 13t13 5h36q8 0 13-5t5-13v-18q39 0 72-20t52-53l38 7q16 53 16 108q0 82-49 155t-132 117t-176 43t-176-43t-132-117t-49-156q0-54 16-107l38-7q19 34 52 53t73 20v18q0 8 5 13t13 5h35q8 0 13-5t5-13v-321q0-8-5-13t-13-5h-35q-8 0-13 5t-5 13v18q-49 0-88 29t-50 77l-103 18l-11 27q-34 83-34 175q0 85 37 163t100 135t149 91t178 34t179-34t148-91t100-135t38-163z" horiz-adv-x="928.6" />
<glyph glyph-name="clock-1" unicode="&#xe88c;" d="m500 546v-250q0-7-5-12t-13-5h-178q-8 0-13 5t-5 12v36q0 8 5 13t13 5h125v196q0 8 5 13t12 5h36q8 0 13-5t5-13z m232-196q0 83-41 152t-110 111t-152 41t-153-41t-110-111t-41-152t41-152t110-111t153-41t152 41t110 111t41 152z m125 0q0-117-57-215t-156-156t-215-58t-216 58t-155 156t-58 215t58 215t155 156t216 58t215-58t156-156t57-215z" horiz-adv-x="857.1" />
<glyph glyph-name="lightbulb" unicode="&#xe88d;" d="m411 529q0-8-6-13t-12-5t-13 5t-5 13q0 25-30 39t-59 14q-8 0-13 5t-5 13t5 13t13 5q28 0 55-9t49-30t21-50z m89 0q0 40-19 74t-50 57t-69 35t-76 12t-76-12t-69-35t-50-57t-20-74q0-57 38-101q6-6 17-18t17-19q72-85 79-166h127q8 81 79 166q6 6 17 19t17 18q38 44 38 101z m71 0q0-87-57-150q-25-27-42-49t-33-53t-19-60q26-15 26-46q0-20-14-35q14-15 14-36q0-29-25-45q8-13 8-26q0-26-18-40t-43-14q-11-25-34-39t-48-15t-49 15t-33 39q-26 0-44 14t-17 40q0 13 7 26q-25 16-25 45q0 21 14 36q-14 15-14 35q0 31 26 46q-2 28-19 60t-33 53t-41 49q-58 63-58 150q0 55 25 103t65 79t92 49t104 19t104-19t91-49t66-79t24-103z" horiz-adv-x="571.4" />
<glyph glyph-name="block" unicode="&#xe88e;" d="m732 352q0 90-48 164l-421-420q76-50 166-50q62 0 118 25t96 65t65 97t24 119z m-557-167l421 421q-75 50-167 50q-83 0-153-40t-110-112t-41-152q0-91 50-167z m682 167q0-88-34-168t-91-137t-137-92t-166-34t-167 34t-137 92t-91 137t-34 168t34 167t91 137t137 91t167 34t166-34t137-91t91-137t34-167z" horiz-adv-x="857.1" />
<glyph glyph-name="resize-full" unicode="&#xe88f;" d="m421 261q0-8-5-13l-185-185l80-81q10-10 10-25t-10-25t-25-11h-250q-15 0-25 11t-11 25v250q0 15 11 25t25 11t25-11l80-80l185 185q6 6 13 6t13-6l64-63q5-6 5-13z m436 482v-250q0-15-10-25t-26-11t-25 11l-80 80l-185-185q-6-6-13-6t-13 6l-64 63q-5 6-5 13t5 13l186 185l-81 81q-10 10-10 25t10 25t25 11h250q15 0 26-11t10-25z" horiz-adv-x="857.1" />
<glyph glyph-name="resize-full-alt" unicode="&#xe890;" d="m716 548l-198-198l198-198l80 80q16 18 39 8q22-9 22-33v-250q0-14-10-25t-26-11h-250q-23 0-32 23q-10 21 7 38l81 81l-198 198l-198-198l80-81q17-17 8-38q-10-23-33-23h-250q-15 0-25 11t-11 25v250q0 24 22 33q22 10 39-8l80-80l198 198l-198 198l-80-80q-11-11-25-11q-7 0-14 3q-22 9-22 33v250q0 14 11 25t25 11h250q23 0 33-23q9-22-8-38l-80-81l198-198l198 198l-81 81q-17 16-7 38q9 23 32 23h250q15 0 26-11t10-25v-250q0-24-22-33q-7-3-14-3q-14 0-25 11z" horiz-adv-x="857.1" />
<glyph glyph-name="resize-small" unicode="&#xe891;" d="m429 314v-250q0-14-11-25t-25-10t-25 10l-81 81l-185-186q-5-5-13-5t-13 5l-63 64q-6 5-6 13t6 13l185 185l-80 80q-11 11-11 25t11 25t25 11h250q14 0 25-11t11-25z m421 375q0-7-6-13l-185-185l80-80q11-11 11-25t-11-25t-25-11h-250q-14 0-25 11t-10 25v250q0 14 10 25t25 10t25-10l81-81l185 186q6 5 13 5t13-5l63-64q6-5 6-13z" horiz-adv-x="857.1" />
<glyph glyph-name="resize-vertical" unicode="&#xe892;" d="m393 671q0-14-11-25t-25-10h-71v-572h71q15 0 25-10t11-25t-11-26l-143-142q-10-11-25-11t-25 11l-143 142q-10 11-10 26t10 25t25 10h72v572h-72q-14 0-25 10t-10 25t10 26l143 142q11 11 25 11t25-11l143-142q11-11 11-26z" horiz-adv-x="428.6" />
<glyph glyph-name="resize-horizontal" unicode="&#xe893;" d="m1000 350q0-14-11-25l-142-143q-11-11-26-11t-25 11t-10 25v72h-572v-72q0-14-10-25t-25-11t-25 11l-143 143q-11 11-11 25t11 25l143 143q10 11 25 11t25-11t10-25v-72h572v72q0 14 10 25t25 11t26-11l142-143q11-10 11-25z" horiz-adv-x="1000" />
<glyph glyph-name="move" unicode="&#xe894;" d="m1000 350q0-14-11-25l-142-143q-11-11-26-11t-25 11t-10 25v72h-215v-215h72q14 0 25-10t11-25t-11-26l-143-142q-10-11-25-11t-25 11l-143 142q-11 11-11 26t11 25t25 10h72v215h-215v-72q0-14-10-25t-25-11t-26 11l-142 143q-11 11-11 25t11 25l142 143q11 11 26 11t25-11t10-25v-72h215v215h-72q-14 0-25 10t-11 25t11 26l143 142q11 11 25 11t25-11l143-142q11-11 11-26t-11-25t-25-10h-72v-215h215v72q0 14 10 25t25 11t26-11l142-143q11-10 11-25z" horiz-adv-x="1000" />
<glyph glyph-name="zoom-in" unicode="&#xe895;" d="m571 404v-36q0-7-5-13t-12-5h-125v-125q0-7-6-13t-12-5h-36q-7 0-13 5t-5 13v125h-125q-7 0-12 5t-6 13v36q0 7 6 12t12 5h125v125q0 8 5 13t13 5h36q7 0 12-5t6-13v-125h125q7 0 12-5t5-12z m72-18q0 103-74 176t-176 74t-177-74t-73-176t73-177t177-73t176 73t74 177z m286-465q0-29-21-50t-51-21q-30 0-50 21l-191 191q-100-69-223-69q-80 0-153 31t-125 84t-84 125t-31 153t31 152t84 126t125 84t153 31t152-31t126-84t84-126t31-152q0-123-69-223l191-191q21-21 21-51z" horiz-adv-x="928.6" />
<glyph glyph-name="zoom-out" unicode="&#xe896;" d="m571 404v-36q0-7-5-13t-12-5h-322q-7 0-12 5t-6 13v36q0 7 6 12t12 5h322q7 0 12-5t5-12z m72-18q0 103-74 176t-176 74t-177-74t-73-176t73-177t177-73t176 73t74 177z m286-465q0-29-21-50t-51-21q-30 0-50 21l-191 191q-100-69-223-69q-80 0-153 31t-125 84t-84 125t-31 153t31 152t84 126t125 84t153 31t152-31t126-84t84-126t31-152q0-123-69-223l191-191q21-21 21-51z" horiz-adv-x="928.6" />
<glyph glyph-name="down-circle2" unicode="&#xe897;" d="m625 332q0-7-6-13l-178-178q-6-5-12-5t-13 5l-179 178q-8 9-4 20q5 11 17 11h107v196q0 8 5 13t13 5h107q8 0 13-5t5-13v-196h107q8 0 13-5t5-13z m-196 322q-83 0-153-41t-110-111t-41-152t41-152t110-111t153-41t152 41t110 111t41 152t-41 152t-110 111t-152 41z m428-304q0-117-57-215t-156-156t-215-58t-216 58t-155 156t-58 215t58 215t155 156t216 58t215-58t156-156t57-215z" horiz-adv-x="857.1" />
<glyph glyph-name="up-circle2" unicode="&#xe898;" d="m624 361q-5-11-17-11h-107v-196q0-8-5-13t-13-5h-107q-8 0-13 5t-5 13v196h-107q-8 0-13 5t-5 13q0 7 6 13l178 178q6 5 13 5t12-5l179-178q8-9 4-20z m-195 293q-83 0-153-41t-110-111t-41-152t41-152t110-111t153-41t152 41t110 111t41 152t-41 152t-110 111t-152 41z m428-304q0-117-57-215t-156-156t-215-58t-216 58t-155 156t-58 215t58 215t155 156t216 58t215-58t156-156t57-215z" horiz-adv-x="857.1" />
<glyph glyph-name="left-circled2" unicode="&#xe880;" d="m643 404v-108q0-7-5-12t-13-5h-196v-108q0-7-5-12t-13-5q-7 0-14 5l-178 178q-5 5-5 13t5 13l179 178q5 5 13 5q7 0 12-5t6-12v-108h196q7 0 13-5t5-12z m89-54q0 83-41 152t-110 111t-152 41t-153-41t-110-111t-41-152t41-152t110-111t153-41t152 41t110 111t41 152z m125 0q0-117-57-215t-156-156t-215-58t-216 58t-155 156t-58 215t58 215t155 156t216 58t215-58t156-156t57-215z" horiz-adv-x="857.1" />
<glyph glyph-name="right-circled2" unicode="&#xe881;" d="m643 350q0-8-5-13l-179-178q-5-5-13-5q-7 0-12 5t-5 12v108h-197q-7 0-12 5t-6 12v108q0 7 6 12t12 5h197v108q0 7 5 12t12 5q7 0 14-5l178-178q5-5 5-13z m89 0q0 83-41 152t-110 111t-152 41t-153-41t-110-111t-41-152t41-152t110-111t153-41t152 41t110 111t41 152z m125 0q0-117-57-215t-156-156t-215-58t-216 58t-155 156t-58 215t58 215t155 156t216 58t215-58t156-156t57-215z" horiz-adv-x="857.1" />
<glyph glyph-name="down-dir" unicode="&#xe884;" d="m571 457q0-14-10-25l-250-250q-11-11-25-11t-25 11l-250 250q-11 11-11 25t11 25t25 11h500q14 0 25-11t10-25z" horiz-adv-x="571.4" />
<glyph glyph-name="up-dir" unicode="&#xe885;" d="m571 171q0-14-10-25t-25-10h-500q-15 0-25 10t-11 25t11 26l250 250q10 10 25 10t25-10l250-250q10-11 10-26z" horiz-adv-x="571.4" />
<glyph glyph-name="left-dir" unicode="&#xe888;" d="m357 600v-500q0-14-10-25t-26-11t-25 11l-250 250q-10 11-10 25t10 25l250 250q11 11 25 11t26-11t10-25z" horiz-adv-x="357.1" />
<glyph glyph-name="right-dir" unicode="&#xe88a;" d="m321 350q0-14-10-25l-250-250q-11-11-25-11t-25 11t-11 25v500q0 15 11 25t25 11t25-11l250-250q10-10 10-25z" horiz-adv-x="357.1" />
<glyph glyph-name="down-open" unicode="&#xe899;" d="m899 457q0-29-21-50l-363-363q-21-22-51-22q-30 0-50 22l-363 363q-21 20-21 50q0 30 21 51l41 42q22 20 51 20q29 0 50-20l271-271l271 271q21 20 51 20q29 0 50-20l42-42q21-22 21-51z" horiz-adv-x="928.6" />
<glyph glyph-name="left-open" unicode="&#xe89a;" d="m414-28l-364 364q-20 20-20 50t20 51l364 363q21 20 51 20t50-20l42-42q21-21 21-51t-21-50l-271-271l271-271q21-21 21-51t-21-50l-42-42q-21-20-50-20t-51 20z" horiz-adv-x="642.9" />
<glyph glyph-name="right-open" unicode="&#xe89b;" d="m613 386q0-29-20-51l-364-363q-21-21-50-21t-51 21l-42 42q-21 21-21 50q0 30 21 51l271 271l-271 270q-21 22-21 51q0 30 21 50l42 42q20 21 51 21t50-21l364-363q20-21 20-50z" horiz-adv-x="642.9" />
<glyph glyph-name="up-open" unicode="&#xe89c;" d="m899 171q0-29-21-50l-42-42q-21-21-50-21q-30 0-51 21l-271 271l-271-271q-20-21-50-21t-50 21l-42 42q-21 20-21 50q0 30 21 51l363 363q21 21 50 21q29 0 51-21l363-363q21-21 21-51z" horiz-adv-x="928.6" />
<glyph glyph-name="angle-left" unicode="&#xe89d;" d="m350 546q0-7-6-12l-219-220l219-219q6-6 6-13t-6-13l-28-28q-5-5-12-5t-13 5l-260 260q-6 6-6 13t6 13l260 260q5 6 13 6t12-6l28-28q6-5 6-13z" horiz-adv-x="357.1" />
<glyph glyph-name="angle-right" unicode="&#xe89e;" d="m332 314q0-7-6-13l-260-260q-5-5-12-5t-13 5l-28 28q-6 6-6 13t6 13l219 219l-219 220q-6 5-6 12t6 13l28 28q5 6 13 6t12-6l260-260q6-5 6-13z" horiz-adv-x="357.1" />
<glyph glyph-name="angle-up" unicode="&#xe89f;" d="m600 189q0-7-6-13l-28-27q-5-6-12-6t-13 6l-220 219l-219-219q-5-6-13-6t-13 6l-27 27q-6 6-6 13t6 13l260 260q5 6 12 6t13-6l260-260q6-5 6-13z" horiz-adv-x="642.9" />
<glyph glyph-name="angle-down" unicode="&#xe8a0;" d="m600 439q0-7-6-13l-260-260q-5-5-13-5t-12 5l-260 260q-6 6-6 13t6 13l27 28q6 6 13 6t13-6l219-219l220 219q5 6 13 6t12-6l28-28q6-5 6-13z" horiz-adv-x="642.9" />
<glyph glyph-name="angle-circled-left" unicode="&#xe8a1;" d="m507 72l57 56q11 11 11 26t-11 25l-171 171l171 171q11 11 11 25t-11 25l-57 57q-10 11-25 11t-25-11l-253-253q-11-11-11-25t11-25l253-254q11-10 25-10t25 10z m350 278q0-117-57-215t-156-156t-215-58t-216 58t-155 156t-58 215t58 215t155 156t216 58t215-58t156-156t57-215z" horiz-adv-x="857.1" />
<glyph glyph-name="angle-circled-right" unicode="&#xe8a2;" d="m400 72l253 253q11 11 11 25t-11 25l-253 253q-10 11-25 11t-25-11l-57-56q-11-11-11-26t11-25l171-171l-171-171q-11-11-11-25t11-26l57-57q11-10 25-10t25 10z m457 278q0-117-57-215t-156-156t-215-58t-216 58t-155 156t-58 215t58 215t155 156t216 58t215-58t156-156t57-215z" horiz-adv-x="857.1" />
<glyph glyph-name="angle-circled-up" unicode="&#xe8a3;" d="m650 214l57 57q11 11 11 25t-11 26l-253 253q-11 10-25 10t-26-10l-253-254q-10-10-10-25t10-25l57-57q11-10 25-10t25 10l172 172l171-172q11-10 25-10t25 10z m207 136q0-117-57-215t-156-156t-215-58t-216 58t-155 156t-58 215t58 215t155 156t216 58t215-58t156-156t57-215z" horiz-adv-x="857.1" />
<glyph glyph-name="angle-circled-down" unicode="&#xe8a4;" d="m454 125l253 253q11 11 11 26t-11 25l-57 57q-10 10-25 10t-25-10l-171-172l-172 172q-10 10-25 10t-25-10l-57-57q-10-11-10-25t10-26l253-253q11-10 26-10t25 10z m403 225q0-117-57-215t-156-156t-215-58t-216 58t-155 156t-58 215t58 215t155 156t216 58t215-58t156-156t57-215z" horiz-adv-x="857.1" />
<glyph glyph-name="angle-double-left" unicode="&#xe8a5;" d="m350 82q0-7-6-13l-28-28q-5-5-12-5t-13 5l-260 260q-6 6-6 13t6 13l260 260q5 6 13 6t12-6l28-28q6-5 6-13t-6-12l-219-220l219-219q6-6 6-13z m214 0q0-7-5-13l-28-28q-6-5-13-5t-13 5l-260 260q-6 6-6 13t6 13l260 260q6 6 13 6t13-6l28-28q5-5 5-13t-5-12l-220-220l220-219q5-6 5-13z" horiz-adv-x="571.4" />
<glyph glyph-name="angle-double-right" unicode="&#xe8a6;" d="m332 314q0-7-6-13l-260-260q-5-5-12-5t-13 5l-28 28q-6 6-6 13t6 13l219 219l-219 220q-6 5-6 12t6 13l28 28q5 6 13 6t12-6l260-260q6-5 6-13z m214 0q0-7-5-13l-260-260q-6-5-13-5t-13 5l-28 28q-5 6-5 13t5 13l219 219l-219 220q-5 5-5 12t5 13l28 28q6 6 13 6t13-6l260-260q5-5 5-13z" horiz-adv-x="571.4" />
<glyph glyph-name="angle-double-up" unicode="&#xe8a7;" d="m600 118q0-7-6-13l-28-28q-5-5-12-5t-13 5l-220 219l-219-219q-5-5-13-5t-13 5l-27 28q-6 6-6 13t6 13l260 260q5 5 12 5t13-5l260-260q6-6 6-13z m0 214q0-7-6-13l-28-28q-5-5-12-5t-13 5l-220 220l-219-220q-5-5-13-5t-13 5l-27 28q-6 6-6 13t6 13l260 260q5 6 12 6t13-6l260-260q6-6 6-13z" horiz-adv-x="642.9" />
<glyph glyph-name="angle-double-down" unicode="&#xe8aa;" d="m600 368q0-7-6-13l-260-260q-5-6-13-6t-12 6l-260 260q-6 6-6 13t6 13l27 28q6 5 13 5t13-5l219-220l220 220q5 5 13 5t12-5l28-28q6-6 6-13z m0 214q0-7-6-13l-260-260q-5-5-13-5t-12 5l-260 260q-6 6-6 13t6 13l27 28q6 5 13 5t13-5l219-220l220 220q5 5 13 5t12-5l28-28q6-6 6-13z" horiz-adv-x="642.9" />
<glyph glyph-name="down" unicode="&#xe8b7;" d="m427 125q4-10-3-19l-195-215q-6-5-13-5q-8 0-13 5l-198 215q-8 9-3 19q5 11 16 11h125v696q0 8 5 13t13 5h107q8 0 13-5t5-13v-696h125q11 0 16-11z" horiz-adv-x="428.6" />
<glyph glyph-name="left" unicode="&#xe8c6;" d="m964 352q0-8-5-14l-215-197q-9-8-19-4q-11 5-11 17v125h-696q-8 0-13 5t-5 12v108q0 7 5 12t13 5h696v125q0 12 11 17t19-3l215-196q5-5 5-12z" horiz-adv-x="1000" />
<glyph glyph-name="right" unicode="&#xe8c7;" d="m1000 404v-108q0-7-5-12t-13-5h-696v-125q0-12-11-17t-19 3l-215 196q-5 5-5 12q0 8 5 14l215 197q9 8 19 4q11-5 11-17v-125h696q8 0 13-5t5-12z" horiz-adv-x="1000" />
<glyph glyph-name="up" unicode="&#xe8d6;" d="m427 575q-5-11-16-11h-125v-696q0-8-5-13t-13-5h-107q-8 0-13 5t-5 13v696h-125q-12 0-16 11t3 19l195 215q5 5 13 5q7 0 13-5l198-215q7-9 3-19z" horiz-adv-x="428.6" />
<glyph glyph-name="down-1" unicode="&#xe8d7;" d="m899 386q0-30-21-50l-363-364q-22-21-51-21q-29 0-50 21l-363 364q-21 20-21 50q0 29 21 51l41 41q22 21 51 21q29 0 50-21l164-164v393q0 29 21 50t51 22h71q29 0 50-22t21-50v-393l164 164q21 21 51 21q29 0 50-21l42-42q21-21 21-50z" horiz-adv-x="928.6" />
<glyph glyph-name="left-1" unicode="&#xe8f4;" d="m857 350v-71q0-30-18-51t-47-21h-393l164-164q21-20 21-50t-21-50l-42-43q-21-20-51-20q-29 0-50 20l-364 364q-20 21-20 50q0 29 20 51l364 363q21 21 50 21q29 0 51-21l42-42q21-21 21-50t-21-51l-164-164h393q29 0 47-20t18-51z" horiz-adv-x="857.1" />
<glyph glyph-name="right-1" unicode="&#xe8f5;" d="m821 314q0-30-20-50l-363-364q-22-20-51-20q-29 0-50 20l-42 42q-22 21-22 51t22 51l163 163h-393q-29 0-47 21t-18 51v71q0 30 18 51t47 20h393l-163 164q-22 21-22 51t22 50l42 42q21 21 50 21q29 0 51-21l363-363q20-20 20-51z" horiz-adv-x="857.1" />
<glyph glyph-name="up-1" unicode="&#xe8f3;" d="m899 308q0-28-21-50l-42-42q-21-21-50-21q-30 0-51 21l-164 164v-393q0-29-20-47t-51-19h-71q-30 0-51 19t-21 47v393l-164-164q-20-21-50-21t-50 21l-42 42q-21 21-21 50q0 30 21 51l363 363q20 21 50 21q30 0 51-21l363-363q21-22 21-51z" horiz-adv-x="928.6" />
<glyph glyph-name="right-hand" unicode="&#xe8f8;" d="m143 100q0 15-11 25t-25 11t-25-11t-11-25t11-25t25-11t25 11t11 25z m786 321q0 29-22 50t-50 22h-321q0 11 8 27t19 31t18 38t8 47q0 37-25 54t-64 17q-13 0-50-77q-14-25-21-37q-22-35-62-81q-40-45-57-59q-38-32-78-32h-18v-357h18q40 0 93-18t108-35t100-18q106 0 106 93q0 14-3 31q17 9 27 30t9 41t-10 38q30 28 30 66q0 14-6 31t-14 27h185q29 0 50 21t22 50z m71 1q0-59-42-101t-101-42h-94q-2-35-21-67q2-12 2-24q0-56-34-99q1-78-47-123t-127-45q-74 0-179 39q-92 33-125 33h-161q-29 0-50 21t-21 50v357q0 30 21 51t50 21h161q6 0 12 2t13 8t13 10t13 13t12 12t10 12t8 9q36 42 56 72q7 12 18 35t21 40t23 35t30 28t39 10q70 0 115-38t46-105q0-38-13-72h209q58 0 101-42t42-100z" horiz-adv-x="1000" />
<glyph glyph-name="left-hand" unicode="&#xe906;" d="m768 64h18v357h-18q-20 0-38 7t-35 21t-28 25t-27 31q-1 1-2 2t-2 3t-3 2q-40 46-62 81q-8 13-21 38q-1 2-6 13t-11 20t-11 20t-12 17t-10 6q-40 0-64-17t-25-54q0-24 8-47t19-38t18-31t8-27h-321q-28 0-50-22t-22-50q0-29 22-50t50-21h185q-9-9-14-26t-6-31q0-39 30-67q-10-18-10-38t9-41t27-30q-2-13-2-31q0-47 27-70t75-23q47 0 102 18t109 35t93 18z m161 36q0 15-11 25t-25 11t-25-11t-11-25t11-25t25-11t25 11t11 25z m71 321v-357q0-29-21-50t-50-21h-161q-33 0-125-33q-106-39-176-39q-80 0-129 44t-48 121l0 3q-34 42-34 99q0 12 2 24q-19 32-21 67h-94q-59 0-101 42t-42 101q0 57 42 100t101 42h209q-13 34-13 72q0 68 46 105t115 37q21 0 39-9t30-28t23-35t21-40t18-35q20-30 56-72q1-1 8-9t10-12t12-12t13-13t13-10t13-8t12-2h161q29 0 50-21t21-51z" horiz-adv-x="1000" />
<glyph glyph-name="up-hand" unicode="&#xe907;" d="m714-43q0 15-10 25t-25 11t-26-11t-10-25t10-25t26-11t25 11t10 25z m72 426q0 106-93 106q-15 0-32-3q-9 17-29 27t-41 9t-39-10q-27 30-66 30q-14 0-31-6t-26-14v185q0 29-22 50t-50 22q-28 0-50-22t-21-50v-321q-11 0-27 8t-31 19t-38 18t-47 8q-37 0-55-25t-17-64q0-13 78-50q25-14 36-21q36-22 81-62q45-40 59-57q32-38 32-78v-18h357v18q0 40 18 93t36 108t18 100z m71 3q0-74-38-179q-33-92-33-125v-161q0-29-21-50t-51-21h-357q-29 0-50 21t-21 50v161q0 6-3 12t-8 13t-10 13t-12 13t-12 12t-12 10t-10 8q-41 36-72 56q-11 7-34 18t-40 21t-36 23t-27 30t-10 39q0 70 37 115t106 46q38 0 71-13v209q0 58 43 101t100 42q58 0 101-42t42-101v-94q35-2 66-21q12 2 24 2q57 0 100-34q77 1 122-47t45-127z" horiz-adv-x="857.1" />
<glyph glyph-name="down-hand" unicode="&#xe928;" d="m786 314q0 47-18 102t-36 109t-18 93v18h-357v-18q0-20-7-38t-20-35t-26-28t-30-27q-5-4-8-7q-45-40-81-62q-12-8-38-21q-1-1-12-6t-20-11t-20-11t-17-12t-7-10q0-40 17-65t55-24q24 0 47 8t38 18t31 19t27 8v-321q0-28 21-50t50-22q29 0 50 22t22 50v184q25-19 57-19q39 0 66 30q18-11 39-11t41 10t29 27q14-2 32-2q47 0 70 27t23 75z m-72 429q0 14-10 25t-25 11t-26-11t-10-25t10-25t26-11t25 11t10 25z m143-427q0-79-43-128t-121-48l-3 0q-43-34-100-34q-12 0-24 2q-30-17-66-21v-94q0-59-42-101t-101-42q-58 0-100 42t-43 101v208q-30-12-71-12q-68 0-105 46t-38 115q0 21 10 39t27 30t36 23t40 21t34 18q31 20 72 56q2 1 10 8t12 10t12 12t12 13t10 13t8 13t3 12v160q0 30 21 51t50 21h357q30 0 51-21t21-51v-160q0-33 33-125q38-106 38-177z" horiz-adv-x="857.1" />
<glyph glyph-name="left-circled" unicode="&#xe927;" d="m714 314v72q0 14-10 25t-25 10h-281l106 106q11 11 11 25t-11 25l-51 51q-10 10-25 10t-25-10l-202-202l-51-51q-10-10-10-25t10-25l51-51l202-202q10-10 25-10t25 10l51 51q10 10 10 25t-10 25l-106 106h281q14 0 25 10t10 25z m143 36q0-117-57-215t-156-156t-215-58t-216 58t-155 156t-58 215t58 215t155 156t216 58t215-58t156-156t57-215z" horiz-adv-x="857.1" />
<glyph glyph-name="right-circled" unicode="&#xe926;" d="m717 350q0 15-10 25l-51 51l-202 202q-10 10-25 10t-25-10l-51-51q-10-10-10-25t10-25l106-106h-280q-15 0-26-10t-10-25v-72q0-14 10-25t26-10h280l-106-106q-10-10-10-25t10-25l51-51q10-10 25-10t25 10l202 202l51 51q10 10 10 25z m140 0q0-117-57-215t-156-156t-215-58t-216 58t-155 156t-58 215t58 215t155 156t216 58t215-58t156-156t57-215z" horiz-adv-x="857.1" />
<glyph glyph-name="up-circled" unicode="&#xe925;" d="m717 351q0 15-11 25l-202 202l-50 50q-10 11-25 11t-26-11l-50-50l-202-202q-10-10-10-25t10-26l50-50q11-10 26-10t25 10l105 105v-280q0-14 11-25t25-11h71q15 0 25 11t11 25v280l105-105q11-11 26-11t25 11l50 50q11 11 11 26z m140-1q0-117-57-215t-156-156t-215-58t-216 58t-155 156t-58 215t58 215t155 156t216 58t215-58t156-156t57-215z" horiz-adv-x="857.1" />
<glyph glyph-name="down-circled" unicode="&#xe929;" d="m717 349q0 16-11 26l-50 50q-10 10-25 10t-26-10l-105-105v280q0 15-11 25t-25 11h-71q-15 0-25-11t-11-25v-280l-105 105q-11 11-25 11t-26-11l-50-50q-10-10-10-26t10-25l202-202l50-50q11-10 26-10t25 10l50 50l202 202q11 10 11 25z m140 1q0-117-57-215t-156-156t-215-58t-216 58t-155 156t-58 215t58 215t155 156t216 58t215-58t156-156t57-215z" horiz-adv-x="857.1" />
<glyph glyph-name="cw" unicode="&#xe945;" d="m857 707v-250q0-14-10-25t-26-11h-250q-23 0-32 23q-10 22 7 38l77 77q-82 77-194 77q-58 0-111-23t-91-61t-62-91t-22-111t22-111t62-91t91-61t111-23q66 0 125 29t100 82q4 6 13 7q8 0 14-5l76-77q5-4 6-11t-5-13q-60-74-147-114t-182-41q-87 0-167 34t-136 92t-92 137t-34 166t34 166t92 137t136 92t167 34q82 0 158-31t137-88l72 72q16 18 39 8q22-9 22-33z" horiz-adv-x="857.1" />
<glyph glyph-name="ccw" unicode="&#xe946;" d="m857 350q0-87-34-166t-91-137t-137-92t-166-34q-96 0-183 41t-147 114q-4 6-4 13t5 11l76 77q6 5 14 5q9-1 13-7q41-53 100-82t126-29q58 0 110 23t92 61t61 91t22 111t-22 111t-61 91t-92 61t-110 23q-55 0-105-20t-90-57l77-77q17-16 8-38q-10-23-33-23h-250q-15 0-25 11t-11 25v250q0 24 22 33q22 10 39-8l72-72q60 57 137 88t159 31q87 0 166-34t137-92t91-137t34-166z" horiz-adv-x="857.1" />
<glyph glyph-name="arrows-cw" unicode="&#xe8a8;" d="m843 261q0-3 0-4q-36-150-150-243t-267-93q-81 0-157 31t-136 88l-72-72q-11-11-25-11t-25 11t-11 25v250q0 14 11 25t25 11h250q14 0 25-11t10-25t-10-25l-77-77q40-37 90-57t105-20q74 0 139 37t104 99q6 10 29 66q5 13 17 13h107q8 0 13-6t5-12z m14 446v-250q0-14-10-25t-26-11h-250q-14 0-25 11t-10 25t10 25l77 77q-82 77-194 77q-75 0-140-37t-104-99q-6-10-29-66q-5-13-17-13h-111q-7 0-13 6t-5 12v4q36 150 151 243t268 93q81 0 158-31t137-88l72 72q11 11 25 11t26-11t10-25z" horiz-adv-x="857.1" />
<glyph glyph-name="level-up" unicode="&#xe8ab;" d="m568 514q-10-21-32-21h-107v-482q0-8-5-13t-13-5h-393q-12 0-16 10q-5 11 2 19l89 108q5 6 14 6h179v357h-107q-23 0-33 21q-9 20 5 37l179 215q10 12 27 12t28-12l178-215q15-17 5-37z" horiz-adv-x="571.4" />
<glyph glyph-name="level-down" unicode="&#xe8b8;" d="m18 707h393q7 0 12-5t6-13v-482h107q22 0 32-20t-5-39l-178-214q-11-13-28-13t-27 13l-179 214q-14 17-5 39q10 20 33 20h107v357h-179q-8 0-14 6l-89 108q-7 7-2 19q5 10 16 10z" horiz-adv-x="571.4" />
<glyph glyph-name="shuffle" unicode="&#xe8c5;" d="m372 582q-34-52-77-153q-12 25-20 41t-23 35t-28 32t-36 19t-45 8h-125q-8 0-13 5t-5 13v107q0 8 5 13t13 5h125q139 0 229-125z m628-446q0-8-5-13l-179-179q-5-5-12-5q-8 0-13 6t-5 12v107q-18 0-48 0t-45-1t-41 1t-39 3t-36 6t-35 10t-32 16t-33 22t-31 30t-31 39q33 52 76 152q12-25 20-40t23-36t28-31t35-20t46-8h143v107q0 8 5 13t13 5q6 0 13-5l178-178q5-5 5-13z m0 500q0-8-5-13l-179-179q-5-5-12-5q-8 0-13 6t-5 12v107h-143q-27 0-49-8t-38-25t-29-35t-25-43q-18-34-43-95q-16-37-28-62t-30-59t-36-55t-41-47t-50-38t-60-23t-71-10h-125q-8 0-13 5t-5 13v107q0 8 5 13t13 5h125q27 0 48 9t39 25t28 34t26 43q17 35 43 96q16 36 28 62t30 58t36 56t41 46t50 38t59 24t72 9h143v107q0 8 5 13t13 5q6 0 13-5l178-178q5-5 5-13z" horiz-adv-x="1000" />
<glyph glyph-name="exchange" unicode="&#xe8c8;" d="m1000 189v-107q0-7-5-12t-13-6h-768v-107q0-7-5-12t-13-6q-6 0-13 6l-178 178q-5 5-5 13q0 8 5 13l179 178q5 5 12 5q8 0 13-5t5-13v-107h768q7 0 13-5t5-13z m0 304q0-8-5-13l-179-179q-5-5-12-5q-8 0-13 6t-5 12v107h-768q-7 0-13 6t-5 12v107q0 8 5 13t13 5h768v107q0 8 5 13t13 5q6 0 13-5l178-178q5-5 5-13z" horiz-adv-x="1000" />
<glyph glyph-name="expand" unicode="&#xe8d5;" d="m639 473q10-19-3-36l-178-250q-11-16-29-16t-29 16l-179 250q-13 17-3 36q10 20 32 20h357q22 0 32-20z m75-391v536q0 7-5 12t-13 6h-535q-7 0-13-6t-5-12v-536q0-7 5-12t13-6h535q8 0 13 6t5 12z m143 536v-536q0-66-47-113t-114-48h-535q-67 0-114 48t-47 113v536q0 66 47 113t114 48h535q67 0 114-48t47-113z" horiz-adv-x="857.1" />
<glyph glyph-name="collapse" unicode="&#xe8d8;" d="m639 227q-10-20-32-20h-357q-22 0-32 20q-10 19 3 37l179 250q10 15 29 15t29-15l178-250q13-18 3-37z m75-145v536q0 7-5 12t-13 6h-535q-7 0-13-6t-5-12v-536q0-7 5-12t13-6h535q8 0 13 6t5 12z m143 536v-536q0-66-47-113t-114-48h-535q-67 0-114 48t-47 113v536q0 66 47 113t114 48h535q67 0 114-48t47-113z" horiz-adv-x="857.1" />
<glyph glyph-name="expand-right" unicode="&#xe8e5;" d="m607 350q0-18-15-29l-250-179q-17-12-37-2q-19 9-19 31v358q0 22 19 31q20 10 37-2l250-179q15-11 15-29z m107-268v536q0 8-5 13t-13 5h-535q-8 0-13-5t-5-13v-536q0-8 5-13t13-5h535q8 0 13 5t5 13z m143 536v-536q0-66-47-113t-114-48h-535q-67 0-114 48t-47 113v536q0 66 47 113t114 48h535q67 0 114-48t47-113z" horiz-adv-x="857.1" />
<glyph glyph-name="music" unicode="&#xe808;" d="m857 725v-625q0-28-19-50t-48-33t-58-18t-53-6t-54 6t-58 18t-48 33t-19 50t19 50t48 33t58 18t54 6q58 0 107-22v300l-429-132v-396q0-28-19-50t-48-33t-58-18t-53-6t-54 6t-58 18t-48 33t-19 50t19 50t48 34t58 17t54 6q58 0 107-21v539q0 17 10 32t28 19l464 143q7 3 16 3q22 0 38-16t15-38z" horiz-adv-x="857.1" />
<glyph glyph-name="play" unicode="&#xe8f6;" d="m772 333l-741-412q-13-7-22-2t-9 20v822q0 14 9 20t22-2l741-412q13-7 13-17t-13-17z" horiz-adv-x="785.7" />
<glyph glyph-name="play-circled" unicode="&#xe8f7;" d="m429 779q116 0 215-58t156-156t57-215t-57-215t-156-156t-215-58t-216 58t-155 156t-58 215t58 215t155 156t216 58z m214-460q18 10 18 31t-18 31l-304 178q-17 11-35 1q-18-11-18-31v-358q0-20 18-31q9-4 17-4q10 0 18 5z" horiz-adv-x="857.1" />
<glyph glyph-name="play-circle2" unicode="&#xe905;" d="m661 350q0-21-18-31l-304-178q-8-5-18-5q-8 0-17 4q-18 11-18 31v358q0 20 18 31q18 10 35-1l304-178q18-10 18-31z m71 0q0 83-41 152t-110 111t-152 41t-153-41t-110-111t-41-152t41-152t110-111t153-41t152 41t110 111t41 152z m125 0q0-117-57-215t-156-156t-215-58t-216 58t-155 156t-58 215t58 215t155 156t216 58t215-58t156-156t57-215z" horiz-adv-x="857.1" />
<glyph glyph-name="stop" unicode="&#xe908;" d="m857 743v-786q0-14-10-25t-26-11h-785q-15 0-25 11t-11 25v786q0 14 11 25t25 11h785q15 0 26-11t10-25z" horiz-adv-x="857.1" />
<glyph glyph-name="pause" unicode="&#xe915;" d="m857 743v-786q0-14-10-25t-26-11h-285q-15 0-25 11t-11 25v786q0 14 11 25t25 11h285q15 0 26-11t10-25z m-500 0v-786q0-14-10-25t-26-11h-285q-15 0-25 11t-11 25v786q0 14 11 25t25 11h285q15 0 26-11t10-25z" horiz-adv-x="857.1" />
<glyph glyph-name="to-end" unicode="&#xe916;" d="m25-71q-10-11-18-8t-7 18v822q0 14 7 18t18-8l396-396q5-4 8-11v379q0 14 10 25t25 11h72q14 0 25-11t10-25v-786q0-14-10-25t-25-11h-72q-14 0-25 11t-10 25v379q-3-6-8-11z" horiz-adv-x="571.4" />
<glyph glyph-name="to-end-alt" unicode="&#xe923;" d="m25-71q-10-11-18-8t-7 18v822q0 14 7 18t18-8l396-396q5-4 8-11v397q0 14 7 18t18-8l396-396q4-4 7-11v379q0 14 11 25t25 11h71q15 0 25-11t11-25v-786q0-14-11-25t-25-11h-71q-15 0-25 11t-11 25v379q-3-6-7-11l-396-396q-11-11-18-8t-7 18v397q-3-6-8-11z" horiz-adv-x="1000" />
<glyph glyph-name="to-start" unicode="&#xe924;" d="m546 771q11 11 18 8t7-18v-822q0-14-7-18t-18 8l-396 396q-5 5-7 11v-379q0-14-11-25t-25-11h-71q-15 0-25 11t-11 25v786q0 14 11 25t25 11h71q15 0 25-11t11-25v-379q2 7 7 11z" horiz-adv-x="571.4" />
<glyph glyph-name="to-start-alt" unicode="&#xe92a;" d="m975 771q10 11 18 8t7-18v-822q0-14-7-18t-18 8l-396 396q-5 5-8 11v-397q0-14-7-18t-18 8l-396 396q-5 5-7 11v-379q0-14-11-25t-25-11h-71q-15 0-25 11t-11 25v786q0 14 11 25t25 11h71q15 0 25-11t11-25v-379q2 7 7 11l396 396q11 11 18 8t7-18v-396q3 6 8 10z" horiz-adv-x="1000" />
<glyph glyph-name="fast-fw" unicode="&#xe943;" d="m25-71q-10-11-18-8t-7 18v822q0 14 7 18t18-8l396-396q5-4 8-11v397q0 14 7 18t18-8l396-396q10-11 10-25t-10-25l-396-396q-11-11-18-8t-7 18v396q-3-5-8-10z" horiz-adv-x="928.6" />
<glyph glyph-name="fast-bw" unicode="&#xe944;" d="m903 771q11 11 18 8t8-18v-822q0-14-8-18t-18 8l-396 396q-4 5-7 11v-397q0-14-7-18t-18 8l-396 396q-11 11-11 25t11 25l396 396q11 11 18 8t7-18v-396q3 6 7 10z" horiz-adv-x="928.6" />
<glyph glyph-name="eject" unicode="&#xe8a9;" d="m8 304l396 396q11 10 25 10t25-10l396-396q11-11 8-18t-18-8h-822q-14 0-17 8t7 18z m814-311h-786q-14 0-25 10t-10 26v142q0 15 10 26t25 10h786q14 0 25-10t11-26v-142q0-15-11-26t-25-10z" horiz-adv-x="858.3" />
<glyph glyph-name="target" unicode="&#xe8ac;" d="m668 279h-61q-14 0-25 10t-11 25v72q0 14 11 25t25 10h61q-18 61-63 106t-105 62v-60q0-15-11-26t-25-10h-71q-15 0-25 10t-11 26v60q-60-17-105-62t-63-106h61q15 0 25-10t11-25v-72q0-14-11-25t-25-11h-61q18-60 63-105t105-62v60q0 15 11 25t25 11h71q15 0 25-11t11-25v-60q60 17 105 62t63 105z m189 107v-72q0-14-10-25t-26-10h-79q-21-90-87-156t-155-86v-80q0-14-11-25t-25-11h-71q-15 0-25 11t-11 25v80q-90 21-155 86t-86 156h-80q-15 0-25 10t-11 25v72q0 14 11 25t25 10h80q20 90 86 156t155 86v80q0 14 11 25t25 11h71q15 0 25-11t11-25v-80q90-21 155-86t87-156h79q15 0 26-10t10-25z" horiz-adv-x="857.1" />
<glyph glyph-name="signal" unicode="&#xe8b9;" d="m143 46v-107q0-8-5-13t-13-5h-107q-8 0-13 5t-5 13v107q0 8 5 13t13 5h107q8 0 13-5t5-13z m214 72v-179q0-8-5-13t-13-5h-107q-8 0-13 5t-5 13v179q0 8 5 13t13 5h107q8 0 13-5t5-13z m214 143v-322q0-8-5-13t-12-5h-108q-7 0-12 5t-5 13v322q0 8 5 13t12 5h108q7 0 12-5t5-13z m215 214v-536q0-8-5-13t-13-5h-107q-8 0-13 5t-5 13v536q0 8 5 13t13 5h107q8 0 13-5t5-13z m214 286v-822q0-8-5-13t-13-5h-107q-8 0-13 5t-5 13v822q0 8 5 13t13 5h107q8 0 13-5t5-13z" horiz-adv-x="1000" />
<glyph glyph-name="award" unicode="&#xe8c4;" d="m256 357q-42 91-42 207h-143v-53q0-44 53-91t132-63z m601 154v53h-143q0-116-41-207q79 16 131 63t53 91z m72 71v-71q0-40-24-80t-62-73t-97-54t-120-25q-23-30-53-53q-21-19-29-40t-8-50q0-30 17-51t54-21q42 0 75-25t32-64v-36q0-8-5-13t-13-5h-464q-8 0-13 5t-5 13v36q0 39 33 64t74 25q38 0 55 21t17 51q0 28-8 50t-30 40q-29 23-53 53q-63 3-120 25t-96 54t-63 73t-23 80v71q0 22 16 38t38 16h160v53q0 37 27 63t63 27h321q37 0 63-27t26-63v-53h161q22 0 38-16t16-38z" horiz-adv-x="928.6" />
<glyph glyph-name="desktop" unicode="&#xe8c9;" d="m1000 296v465q0 7-5 12t-13 6h-893q-7 0-12-6t-6-12v-465q0-7 6-12t12-5h893q7 0 13 5t5 12z m71 465v-607q0-37-26-63t-63-27h-303q0-20 9-43t17-40t9-24q0-14-10-25t-25-11h-286q-15 0-25 11t-11 25q0 8 9 25t18 39t9 43h-304q-36 0-63 27t-26 63v607q0 37 26 63t63 26h893q37 0 63-26t26-63z" horiz-adv-x="1071.4" />
<glyph glyph-name="laptop" unicode="&#xe8d4;" d="m232 136q-37 0-63 26t-26 63v393q0 37 26 63t63 26h607q37 0 63-26t27-63v-393q0-37-27-63t-63-26h-607z m-18 482v-393q0-7 6-13t12-5h607q8 0 13 5t5 13v393q0 7-5 12t-13 6h-607q-7 0-12-6t-6-12z m768-518h89v-54q0-22-26-37t-63-16h-893q-36 0-63 16t-26 37v54h982z m-402-54q9 0 9 9t-9 9h-89q-9 0-9-9t9-9h89z" horiz-adv-x="1071.4" />
<glyph glyph-name="tablet" unicode="&#xe8d9;" d="m357 64q0 15-10 25t-26 11t-25-11t-10-25t10-25t25-10t26 10t10 25z m214 90v535q0 8-5 13t-12 5h-465q-7 0-12-5t-6-13v-535q0-8 6-13t12-5h465q7 0 12 5t5 13z m72 535v-607q0-37-26-63t-63-26h-465q-36 0-63 26t-26 63v607q0 37 26 63t63 27h465q36 0 63-27t26-63z" horiz-adv-x="642.9" />
<glyph glyph-name="mobile" unicode="&#xe8e4;" d="m259 64q0 19-13 32t-32 13t-31-13t-13-32t13-31t31-13t32 13t13 31z m116 90v392q0 8-5 13t-13 5h-286q-7 0-12-5t-5-13v-392q0-8 5-13t12-5h286q7 0 13 5t5 13z m-107 473q0 9-9 9h-89q-9 0-9-9t9-9h89q9 0 9 9z m161 9v-572q0-29-22-50t-50-21h-286q-29 0-50 21t-21 50v572q0 29 21 50t50 21h286q29 0 50-21t22-50z" horiz-adv-x="428.6" />
<glyph glyph-name="inbox" unicode="&#xe8e7;" d="m571 314h176q0 2-1 5t-2 4l-118 277h-395l-118-277q-1-1-2-4t-1-5h176l53-107h179z m286-16v-269q0-15-10-26t-26-10h-785q-15 0-25 10t-11 26v269q0 34 14 68l133 308q5 14 20 24t29 9h465q14 0 29-9t20-24l133-308q14-34 14-68z" horiz-adv-x="857.1" />
<glyph glyph-name="globe" unicode="&#xe8f2;" d="m429 779q116 0 215-58t156-156t57-215t-57-215t-156-156t-215-58t-216 58t-155 156t-58 215t58 215t155 156t216 58z m152-291q-1-1-5-5t-7-6q1 0 2 3t3 6t2 4q3 4 12 8q8 4 29 7q19 5 29-6q-1 1 5 7t8 7q2 1 8 2t9 5l1 12q-7-1-10 4t-3 12q0-2-4-5q0 4-2 5t-7-1t-5-1q-5 2-8 5t-5 9t-2 8q-1 3-5 6t-5 6q-1 1-2 3t-2 4t-2 3t-3 1t-4-3t-4-5t-2-3q-2 1-4 1t-2-1t-3-2t-3-2q-1-1-4-1t-5-1q8 3-1 6q-5 2-9 1q5 3 5 7t-5 8h3q-1 2-5 5t-10 4t-7 4q-5 3-19 5t-18 0q-3-3-3-5t2-8t2-7q1-4-3-7t-3-7q0-4 7-9t6-12q-2-4-9-9t-9-6q-3-5-1-11t6-9q1-1 1-2t-2-3t-3-2t-4-2l-1-1q-7-3-12 3t-7 15q-4 14-9 17q-13 4-17-1q-2 7-22 15q-14 5-33 2q4 0 0 8q-4 9-10 7q1 3 2 10t0 7q2 7 7 13q1 1 4 5t5 7t1 4q19-3 28 6q2 2 6 9t6 10q5 3 8 3t8-3t8-3q8-1 8 6t-4 11q7 0 2 10q-3 4-5 5q-6 2-15-3q-4-2 2-4q-1 0-6-6t-9-10t-9 3q0 0-3 7t-5 8q-5 0-9-9q1 5-6 9t-14 4q11 7-4 15q-4 3-12 3t-11-2q-2-4-3-7t3-4t6-3t6-2t5-2q8-6 5-8q-1 0-5-2t-6-2t-4-3q-2-2 0-7t-1-8q-3 3-5 10t-4 9q4-5-14-4l-5 1q-3 0-9-1t-12-1t-7 5q-3 4 0 11q0 2 2 1q-2 2-6 5t-6 5q-25-8-52-23q3 0 6 1q3 1 8 3t5 4q19 7 24 3l3 3q7-9 11-14q-4 3-17 1q-11-4-12-7q4-7 2-10q-2 2-6 6t-8 6t-8 3q-9 0-13-1q-81-45-131-124q4-4 7-4q2-1 3-5t1-6t6 1q5-4 2-10q1 0 25-15q10-10 11-12q2-6-5-10q-1 1-5 5t-5 2q-2-3 0-10t6-7q-4 0-5-9t-2-20t0-13l1-1q-2-6 3-19t12-11q-7-1 11-24q3-4 4-5q2-1 7-4t9-6t5-5q2-3 6-13t8-13q-2-3 5-11t6-13q-1 0-2-1t-1 0q2-4 9-8t8-7q1-2 1-6t2-6t4-1q2 11-13 34q-8 14-9 17q-2 2-4 8t-2 8q1 0 3 0t5-2t4-3t1-1q-1-4 1-10t7-10t10-11t6-7q4-4 8-11t0-8q5 0 11-5t10-11q3-5 4-15t3-13q1-4 5-8t7-5l9-5t7-3q3-2 10-6t12-7q6-2 9-2t8 1t8 2q8 1 16-8t12-12q20-10 30-6q-1 0 1-4t4-9t5-8t3-5q3-3 10-8t10-8q4 2 4 5q-1-5 4-11t10-6q8 2 8 18q-17-9-27 10q0 0-2 3t-2 5t-1 4t0 5t2 1q5 0 6 2t-1 7t-2 8q-1 4-6 11t-7 8q-3-5-9-4t-9 5q0-1-1-3t-1-4q-7 0-8 0q1 2 1 10t2 13q1 2 3 6t5 9t2 7t-3 5t-9 1q-11 0-15-11q-1-2-2-6t-2-6t-5-4q-4-2-14-1t-13 3q-8 4-13 16t-5 20q0 6 1 15t2 14t-3 14q2 1 5 5t5 6q2 1 3 1t2 0t3 1t1 3q0 1-2 2q-2 1-2 1q4-1 16 1t15-1q9-6 12 1q0 1-1 6t0 7q3-15 16-5q2-1 9-3t9-2q2-1 4-3t3-3t3 0t5 4q5-8 7-13q6-23 10-25q4-2 6-1t3 5t0 8t-1 7l-1 4v11l0 4q-8 2-10 7t0 10t9 10q0 1 4 2t9 4t7 4q12 11 8 20q4 0 6 5q0 0-2 2t-5 2t-2 2q5 2 1 8q3 2 4 7t4 5q5-7 12-1q4 5 1 9q2 4 11 6t10 5q4-1 5 1t0 7t2 7q2 2 8 5t8 2l9 7q2 2 0 2q10-1 18 6q5 6-4 11q2 3-2 5t-8 3q2 1 7 1t5 1q9 5-4 9q-9 2-24-7z m-90-490q114 21 195 106q-1 2-7 2t-7 2q-10 4-13 5q1 4-1 7t-5 5t-7 5t-6 4q-1 1-4 3t-4 3t-4 2t-5 2t-5-1l-2-1q-2 0-3-1t-3-2t-2-1t0-2q-12 10-20 13q-3 0-7 3t-5 4t-6 0t-6-4q-3-2-4-8t-1-7q-4 3 0 10t1 10q-1 3-6 2t-6-2t-7-5t-5-3t-4-3t-5-5q-2-2-4-6t-2-7q-1 3-7 4t-5 3q1-5 2-19t3-22q4-17-7-26q-15-14-16-23q-2-12 7-14q0-4-5-12t-4-12q0-3 2-9z" horiz-adv-x="857.1" />
<glyph glyph-name="sun" unicode="&#xe8f9;" d="m821 350q0 65-25 125t-69 102t-102 69t-125 25t-125-25t-102-69t-69-102t-25-125t25-125t69-102t102-69t125-25t125 25t102 69t69 102t25 125z m154-155q-2-8-11-11l-163-53v-171q0-9-7-15q-8-5-16-2l-163 53l-100-139q-6-7-15-7t-14 7l-101 139l-163-53q-8-3-16 2q-7 6-7 15v171l-163 53q-9 3-11 11q-3 10 2 17l100 138l-100 138q-5 8-2 17q2 8 11 11l163 53v171q0 9 7 15q8 5 16 2l163-53l101 139q5 6 14 6t15-6l100-139l163 53q8 3 16-2q7-6 7-15v-171l163-53q9-3 11-12q3-8-2-16l-100-138l100-138q5-7 2-17z" horiz-adv-x="1000" />
<glyph glyph-name="cloud" unicode="&#xe904;" d="m1071 207q0-89-62-151t-152-63h-607q-103 0-177 73t-73 177q0 74 40 135t104 91q-1 15-1 24q0 118 84 202t202 84q88 0 159-50t105-128q39 35 93 35q59 0 101-42t42-101q0-42-23-77q72-17 119-75t46-134z" horiz-adv-x="1071.4" />
<glyph glyph-name="flash" unicode="&#xe909;" d="m494 534q10-11 4-24l-302-646q-7-14-23-14q-2 0-8 1q-9 3-14 11t-3 16l110 451l-226-56q-2-1-7-1q-10 0-17 7q-10 8-7 21l112 461q2 8 9 13t15 5h183q11 0 18-7t7-17q0-4-2-10l-96-258l221 54q5 2 7 2q11 0 19-9z" horiz-adv-x="500" />
<glyph glyph-name="moon" unicode="&#xe914;" d="m704 123q-30-5-61-5q-102 0-188 50t-137 137t-50 188q0 107 58 199q-112-33-183-128t-72-214q0-73 29-139t76-113t114-77t139-28q80 0 152 34t123 96z m114 47q-53-113-159-181t-230-68q-87 0-167 34t-136 92t-92 137t-34 166q0 85 32 163t87 135t132 92t161 38q25 1 34-22q10-23-8-40q-48-43-73-101t-26-122q0-83 41-152t111-111t152-41q66 0 127 29q23 10 40-7q8-8 10-19t-2-22z" horiz-adv-x="857.1" />
<glyph glyph-name="umbrella" unicode="&#xe917;" d="m500 388v-324q0-58-42-100t-101-43t-100 43t-43 100q0 15 11 25t25 11t25-11t11-25q0-28 22-49t49-22t50 22t22 49v324q18 6 35 6t36-6z m429-15q0-7-6-13t-12-5q-6 0-13 6q-27 25-52 38t-57 13q-38 0-71-21t-58-54q-4-5-10-15t-8-14q-6-9-15-9q-10 0-16 9q-3 4-9 14t-9 15q-24 34-58 54t-71 21t-71-21t-57-54q-4-5-10-15t-8-14q-6-9-16-9q-10 0-16 9q-2 4-8 14t-10 15q-24 34-57 54t-71 21q-33 0-57-13t-52-38q-7-6-13-6q-7 0-13 5t-5 13q0 3 1 4q25 102 96 178t166 114t201 38q78 0 153-22t138-64t109-104t64-140q1-1 1-4z m-429 406v-55q-23 1-36 1t-35-1v55q0 14 10 25t25 10t25-10t11-25z" horiz-adv-x="928.6" />
<glyph glyph-name="flight" unicode="&#xe922;" d="m768 761q24-29 7-83t-61-96l-90-90l90-388q3-11-7-18l-71-54q-4-3-11-3q-2 0-4 0q-8 2-12 9l-155 284l-145-145l30-108q3-10-5-18l-53-53q-5-5-13-5h-1q-9 1-14 7l-105 141l-141 105q-6 4-7 13q-1 7 5 14l54 54q5 5 12 5q4 0 5 0l108-30l145 145l-284 155q-8 5-9 14q-1 9 5 15l71 71q8 7 17 5l371-89l89 89q43 42 96 60t83-6z" horiz-adv-x="785.7" />
<glyph glyph-name="fighter-jet" unicode="&#xe92b;" d="m1071 314q0-18-160-53l-197-18l-125-36h-35l-164-196h39q14 0 25-3t10-6t-10-7t-25-2h-179v18h36v232h-90l-107-125h-53l-18 18v107h18v18h71v4l-107 14v71l107 13v5h-71v18h-18v107l18 18h53l107-125h90v232h-36v18h179q14 0 25-3t10-6t-10-7t-25-2h-39l164-197h35l125-35l197-18q145-33 160-52z" horiz-adv-x="1071.4" />
<glyph glyph-name="leaf" unicode="&#xe92c;" d="m714 457q0 15-10 25t-25 11q-96 0-178-28t-145-75t-131-122q-11-12-11-25q0-15 11-25t25-11q13 0 25 11q15 13 41 39t38 37q76 69 150 98t175 29q14 0 25 11t10 25z m286 111q0-53-11-108q-26-125-103-214t-200-149q-119-61-244-61q-83 0-160 27q-8 2-49 23t-53 21q-9 0-22-18t-25-39t-30-39t-33-18q-17 0-29 6t-17 13t-15 24q-1 2-3 6t-3 6t-2 5t-1 7q0 20 17 41t38 37t38 31t18 27q0 2-8 21t-9 25q-5 28-5 58q0 64 24 123t66 103t96 77t113 53q31 10 81 15t100 5t100 3t91 13t64 32l16 16t17 16t15 11t20 9t24 3q22 0 40-26t26-63t14-69t4-53z" horiz-adv-x="1000" />
<glyph glyph-name="font" unicode="&#xe941;" d="m405 538l-95-251q40-1 85-1t67-1t29 0l16 1q-18 53-51 134q-30 74-51 118z m-393-617h-12l1 44q12 4 45 10q49 9 61 18q11 9 27 38l132 344l156 404h72l6-12l114-268q58-135 70-166q21-57 53-131q15-32 36-91q14-38 37-84q12-27 19-31q13-11 39-13q26-4 57-15q4-22 4-32q0-8-1-15q-45 0-107 5q-52 4-106 4q-44 0-75-1l-112-6l-32-1q0 25 2 43l73 16q32 7 38 13q7 7 7 15t-3 18l-26 63l-52 128l-251 1q-16-36-58-153q-13-36-13-47q0-17 10-24q14-12 57-18q2 0 8-1t16-3t23-3q1-16 1-32q0-10-2-16q-36 0-194 12l-27-5q-45-8-93-8z" horiz-adv-x="928.6" />
<glyph glyph-name="bold" unicode="&#xe942;" d="m310 1q42-18 78-18q73 0 120 23t68 63q22 39 22 101q0 64-23 101q-33 52-79 70q-45 18-138 18q-41 0-56-6v-80l-1-97l2-150q0-9 7-25z m-8 417q24-4 61-4q97 0 147 36t50 125q0 62-48 104q-47 42-142 42q-29 0-73-7q0-25 2-43q3-68 3-156l-1-55q0-24 1-43z m-302-497l1 53q25 5 38 7q43 6 69 17q9 15 11 28q5 37 5 109l-1 277q-2 143-5 225q0 49-6 61q0 2-6 7q-11 7-39 8q-17 1-64 8l-2 46l145 3l212 7l25 1q3 0 8 0t8 0q1 0 12 0t23 0h41q49 0 106-15q24-7 54-22q32-16 57-42q25-26 36-58t12-68q0-40-18-72t-53-58q-14-12-84-43q99-23 149-82q52-59 52-132q0-42-16-89q-12-35-40-66q-37-40-78-60q-41-20-113-33q-46-9-111-7l-110 3q-47 1-166-6q-19-2-152-7z" horiz-adv-x="785.7" />
<glyph glyph-name="italic" unicode="&#xe8ad;" d="m0-78l10 48q2 0 43 11q42 11 64 22q16 21 23 56l15 78l31 149l7 36q5 25 10 47t9 38t7 26t5 17t1 6l17 88l9 35l12 75l4 28v21q-23 13-80 16q-16 1-21 2l10 58l177-8q22-1 41-1q37 0 119 5q19 1 38 2t20 2q-1-11-3-22q-4-16-7-28q-31-11-61-17q-36-9-56-18q-7-17-14-49q-5-24-7-46q-25-111-37-170l-34-174l-21-88l-24-131l-7-25q-1-4 1-15q36-9 66-12q20-3 37-6q-1-16-4-32q-4-17-5-23q-10 0-13-1q-13-1-23-1q-5 0-16 2q-10 2-81 10l-110 1q-23 0-97-6q-42-4-55-6z" horiz-adv-x="571.4" />
<glyph glyph-name="text-height" unicode="&#xe8b6;" d="m45 778l30-15q12-3 118-3h73l10 2l64 0l120 0h164l19-1q8-1 15 4t12 8l4 5l24 0q8 0 15 0v-58t1-74l0-55l0-33q0-18-2-28q-22-9-38-10q-14 24-31 71q-4 13-8 35t-7 36t-3 17q-7 8-15 10q-4 1-24 1t-58 0t-61-1q-19 0-38-3q-5-54-4-75l0-85v-186l2-200l-1-82q0-26 6-47q28-14 50-18q1 0 10-3t25-7t24-7q16-4 28-10q2-25 2-28q0-5-1-16q-8-1-19-1q-62 0-105 6q-40 4-132 4q-49 0-130-7q-27-3-39-3q-2 13-2 15l0 14v5q12 19 44 28q78 21 89 28q5 11 6 31q5 107 4 242l-3 238q-1 35 0 66t0 58t-1 31t-4 9q-3 3-7 3q-22 4-83 4q-24 0-56-8t-40-14q-8-5-13-18t-12-42t-13-47q-4-10-11-18t-12-7q-24 15-31 25v213z m928-714q19 0 24-10t-7-25l-70-90q-11-15-27-15t-27 15l-71 90q-11 15-6 25t23 10h45v572h-45q-18 0-23 10t6 25l71 90q11 15 27 15t27-15l70-90q12-15 7-25t-24-10h-44v-572h44z" horiz-adv-x="1000" />
<glyph glyph-name="text-width" unicode="&#xe8ba;" d="m45 778l30-15q12-3 118-3h73l10 2l64 0l249 0h178l19-1q8-1 15 4t12 8l4 5l23 0q9 0 16 0v-58t1-74l0-55l0-33q0-18-3-28q-21-9-38-10q-14 24-30 71q-4 13-8 35t-7 36t-3 17q-7 8-15 10q-4 1-33 1t-77 0t-72-1q-52 0-70-3q-6-54-5-75l1-85v29l1-201l0-82q-1-25 6-47q27-14 50-18q1 0 10-3t24-7t24-7q17-4 28-10q3-25 3-28q0-5-2-16q-8 0-19 0q-61 0-104 5q-40 5-133 5q-46 0-130-8q-25-2-39-2q-1 12-1 14l-1 15v5q12 18 44 27q78 21 89 28q5 12 7 31q3 77 3 242l-3 24q0 148-1 155q-1 7-3 9q-3 3-8 3q-21 4-82 4q-28 0-95-8t-73-14q-8-5-13-18t-12-42t-13-47q-4-10-11-18t-12-7q-24 15-31 25v213z m795-722q14-11 14-27t-14-28l-91-70q-14-11-24-6t-11 23v45h-571v-45q0-18-10-23t-25 6l-91 70q-14 11-14 28t14 27l91 70q14 11 25 6t10-23v-45h571v45q0 18 11 23t24-6z" horiz-adv-x="857.1" />
<glyph glyph-name="align-left" unicode="&#xe8c3;" d="m1000 100v-71q0-15-11-25t-25-11h-928q-15 0-25 11t-11 25v71q0 15 11 25t25 11h928q15 0 25-11t11-25z m-214 214v-71q0-15-11-25t-25-11h-714q-15 0-25 11t-11 25v71q0 15 11 25t25 11h714q15 0 25-11t11-25z m143 215v-72q0-14-11-25t-25-11h-857q-15 0-25 11t-11 25v72q0 14 11 25t25 10h857q14 0 25-10t11-25z m-215 214v-72q0-14-10-25t-25-10h-643q-15 0-25 10t-11 25v72q0 14 11 25t25 11h643q14 0 25-11t10-25z" horiz-adv-x="1000" />
<glyph glyph-name="align-center" unicode="&#xe8ca;" d="m1000 100v-71q0-15-11-25t-25-11h-928q-15 0-25 11t-11 25v71q0 15 11 25t25 11h928q15 0 25-11t11-25z m-214 214v-71q0-15-11-25t-25-11h-500q-14 0-25 11t-11 25v71q0 15 11 25t25 11h500q15 0 25-11t11-25z m143 215v-72q0-14-11-25t-25-11h-786q-14 0-25 11t-11 25v72q0 14 11 25t25 10h786q14 0 25-10t11-25z m-215 214v-72q0-14-10-25t-25-10h-358q-14 0-25 10t-10 25v72q0 14 10 25t25 11h358q14 0 25-11t10-25z" horiz-adv-x="1000" />
<glyph glyph-name="align-right" unicode="&#xe8d3;" d="m1000 100v-71q0-15-11-25t-25-11h-928q-15 0-25 11t-11 25v71q0 15 11 25t25 11h928q15 0 25-11t11-25z m0 214v-71q0-15-11-25t-25-11h-714q-14 0-25 11t-11 25v71q0 15 11 25t25 11h714q15 0 25-11t11-25z m0 215v-72q0-14-11-25t-25-11h-857q-14 0-25 11t-11 25v72q0 14 11 25t25 10h857q15 0 25-10t11-25z m0 214v-72q0-14-11-25t-25-10h-643q-14 0-25 10t-10 25v72q0 14 10 25t25 11h643q15 0 25-11t11-25z" horiz-adv-x="1000" />
<glyph glyph-name="align-justify" unicode="&#xe8da;" d="m1000 100v-71q0-15-11-25t-25-11h-928q-15 0-25 11t-11 25v71q0 15 11 25t25 11h928q15 0 25-11t11-25z m0 214v-71q0-15-11-25t-25-11h-928q-15 0-25 11t-11 25v71q0 15 11 25t25 11h928q15 0 25-11t11-25z m0 215v-72q0-14-11-25t-25-11h-928q-15 0-25 11t-11 25v72q0 14 11 25t25 10h928q15 0 25-10t11-25z m0 214v-72q0-14-11-25t-25-10h-928q-15 0-25 10t-11 25v72q0 14 11 25t25 11h928q15 0 25-11t11-25z" horiz-adv-x="1000" />
<glyph glyph-name="list" unicode="&#xe8e3;" d="m143 118v-107q0-7-5-13t-13-5h-107q-7 0-13 5t-5 13v107q0 7 5 12t13 6h107q7 0 13-6t5-12z m0 214v-107q0-7-5-13t-13-5h-107q-7 0-13 5t-5 13v107q0 7 5 13t13 5h107q7 0 13-5t5-13z m0 214v-107q0-7-5-12t-13-6h-107q-7 0-13 6t-5 12v107q0 8 5 13t13 5h107q7 0 13-5t5-13z m857-428v-107q0-7-5-13t-13-5h-750q-7 0-12 5t-6 13v107q0 7 6 12t12 6h750q7 0 13-6t5-12z m-857 643v-107q0-8-5-13t-13-5h-107q-7 0-13 5t-5 13v107q0 7 5 12t13 6h107q7 0 13-6t5-12z m857-429v-107q0-7-5-13t-13-5h-750q-7 0-12 5t-6 13v107q0 7 6 13t12 5h750q7 0 13-5t5-13z m0 214v-107q0-7-5-12t-13-6h-750q-7 0-12 6t-6 12v107q0 8 6 13t12 5h750q7 0 13-5t5-13z m0 215v-107q0-8-5-13t-13-5h-750q-7 0-12 5t-6 13v107q0 7 6 12t12 6h750q7 0 13-6t5-12z" horiz-adv-x="1000" />
</font>
</defs>
</svg>
